<?xml version="1.0" standalone="no"?>
<!DOCTYPE svg PUBLIC "-//W3C//DTD SVG 1.1//EN" "http://www.w3.org/Graphics/SVG/1.1/DTD/svg11.dtd" >
<svg>
<metadata>
Created by FontForge 20110222 at Tue Jul  1 13:46:16 2014
 By deploy user
Copyright (c) 2007 by Jeremy Dooley. All rights reserved.
</metadata>
<defs>
<font id="AvianoSans" horiz-adv-x="710" >
  <font-face 
    font-family="Aviano Sans"
    font-weight="400"
    font-stretch="normal"
    units-per-em="1000"
    panose-1="2 0 0 0 0 0 0 0 0 0"
    ascent="750"
    descent="-250"
    x-height="501"
    cap-height="558"
    bbox="-80 -294 1660 832"
    underline-thickness="50"
    underline-position="-50"
    unicode-range="U+0020-2265"
  />
<missing-glyph horiz-adv-x="500" 
 />
    <glyph glyph-name=".notdef" horiz-adv-x="500" 
 />
    <glyph glyph-name=".null" horiz-adv-x="0" 
 />
    <glyph glyph-name="nonmarkingreturn" horiz-adv-x="333" 
 />
    <glyph glyph-name="space" unicode=" " horiz-adv-x="370" 
 />
    <glyph glyph-name="exclam" unicode="!" horiz-adv-x="296" 
d="M196 614l-33 -443h-30l-33 443h96zM149 84q18 0 31.5 -13t13.5 -31q0 -19 -13.5 -32t-31.5 -13q-19 0 -32.5 13t-13.5 31q0 19 13.5 32t32.5 13z" />
    <glyph glyph-name="quotedbl" unicode="&#x22;" horiz-adv-x="354" 
d="M143 530l-37 -138h-9l-37 138v133h83v-133zM294 530l-37 -138h-9l-37 138v133h83v-133z" />
    <glyph glyph-name="numbersign" unicode="#" horiz-adv-x="594" 
d="M516 675l-39 -206h101v-49h-109l-32 -174h130v-48h-138l-37 -210h-49l37 210h-183l-38 -210h-50l38 210h-104v48h113l33 174h-134v49h142l37 206h50l-37 -206h182l36 206h51zM420 420h-182l-32 -174h182z" />
    <glyph glyph-name="dollar" unicode="$" horiz-adv-x="679" 
d="M377 -124h-75v104q-163 7 -241 61v97q34 -30 101.5 -54t139.5 -29v192q-44 7 -75 14t-67 21t-58 31t-37 44.5t-15 62.5q0 48 40 84t95.5 53t116.5 20v98h75v-99q100 -5 191 -42v-92q-87 48 -191 59v-184q54 -10 91.5 -21t76.5 -29t59 -47t20 -67q0 -80 -69.5 -122.5
t-177.5 -49.5v-105zM539 146q0 20 -12 35t-36.5 25t-50 16.5t-63.5 12.5v-179q72 7 117 32.5t45 57.5zM135 412q0 -33 42 -49.5t125 -31.5v170q-28 -2 -53.5 -7t-53 -14.5t-44 -27t-16.5 -40.5z" />
    <glyph glyph-name="percent" unicode="%" horiz-adv-x="818" 
d="M602 293q65 0 113.5 -44.5t48.5 -110.5q0 -69 -48.5 -113t-115.5 -44q-71 0 -116 45.5t-45 110.5q0 70 48 113t115 43zM195 571q66 0 114 -44.5t48 -111.5q0 -69 -48.5 -112.5t-115.5 -43.5q-71 0 -116 45.5t-45 109.5q0 70 48 113.5t115 43.5zM723 571l-531 -572h-95
l532 572h94zM194 306q30 0 47.5 33.5t17.5 79.5q0 43 -16.5 73t-47.5 30t-48.5 -31t-17.5 -74q0 -44 17.5 -77t47.5 -34zM601 28q29 0 47 34t18 79q0 42 -17 72.5t-47 30.5q-31 0 -48.5 -31t-17.5 -74t17.5 -76.5t47.5 -34.5z" />
    <glyph glyph-name="ampersand" unicode="&#x26;" horiz-adv-x="824" 
d="M708 54v-75l-132 75h-1q-92 -76 -215 -76q-133 0 -205 48.5t-72 124.5q0 73 84 160q-39 47 -39 98q0 75 61 122t165 47q76 0 168 -35v-99q-68 60 -161 60q-147 0 -147 -86q0 -37 44 -76.5t120 -85.5l168 -103q32 43 32 92q0 15 -5 37h82q8 -32 8 -57q0 -63 -39 -120z
M358 177q-101 57 -135 83q-30 -31 -42.5 -51t-12.5 -43q0 -47 52 -79.5t141 -32.5q71 0 133 46z" />
    <glyph glyph-name="quotesingle" unicode="'" horiz-adv-x="173" 
d="M143 530l-37 -138h-9l-37 138v133h83v-133z" />
    <glyph glyph-name="parenleft" unicode="(" horiz-adv-x="301" 
d="M60 230q0 238 223 438l29 -28q-162 -164 -162 -406q0 -128 38 -231.5t127 -194.5l-16 -10l-16 -14q-223 203 -223 446z" />
    <glyph glyph-name="parenright" unicode=")" horiz-adv-x="304" 
d="M263 229q0 -242 -221 -444l-31 25q164 171 164 422q0 246 -163 408l28 28q223 -194 223 -439z" />
    <glyph glyph-name="asterisk" unicode="*" horiz-adv-x="413" 
d="M218 486l109 67l45 -60l-124 -61l130 -65l-57 -55l-103 63l10 -116h-82l11 117l-103 -64l-57 55l128 65l-122 61l45 60l109 -66l-11 121h82z" />
    <glyph glyph-name="plus" unicode="+" horiz-adv-x="580" 
d="M565 252h-223v-223h-71v223h-222v70h222v223h71v-223h223v-70z" />
    <glyph glyph-name="comma" unicode="," horiz-adv-x="146" 
d="M-20 -102l46 171h85l-68 -171h-63z" />
    <glyph glyph-name="hyphen" unicode="-" horiz-adv-x="294" 
d="M276 258v-75h-213v75h213z" />
    <glyph glyph-name="period" unicode="." horiz-adv-x="166" 
d="M83 100q21 0 37 -15.5t16 -36.5q0 -22 -16 -37.5t-37 -15.5q-22 0 -37.5 15.5t-15.5 36.5q0 22 15.5 37.5t37.5 15.5z" />
    <glyph glyph-name="slash" unicode="/" horiz-adv-x="404" 
d="M358 660l-254 -746h-77l253 746h78z" />
    <glyph glyph-name="zero" unicode="0" horiz-adv-x="663" 
d="M332 579q128 0 199.5 -88t71.5 -210q0 -124 -73 -217t-198 -93q-129 0 -200.5 87t-71.5 209q0 124 73.5 218t198.5 94zM332 504q-86 0 -134 -66.5t-48 -159.5t48.5 -162.5t133.5 -69.5q86 0 133.5 66.5t47.5 159.5t-48.5 162.5t-132.5 69.5z" />
    <glyph glyph-name="one" unicode="1" horiz-adv-x="429" 
d="M309 0h-85v448l-89 -89l-55 53l145 146h84v-558z" />
    <glyph glyph-name="two" unicode="2" horiz-adv-x="595" 
d="M535 75v-75h-475v75q19 10 69 35.5t76 40t70 40t68.5 45.5t51 45.5t38.5 51t12 51.5q0 57 -41 84t-105 27q-65 0 -125 -25t-84 -67v101q63 66 211 66q109 0 171.5 -49.5t62.5 -126.5q0 -31 -9 -59.5t-21 -50.5t-36.5 -46t-42 -38.5t-52 -35.5t-53 -31t-57.5 -30t-53 -28
h324z" />
    <glyph glyph-name="three" unicode="3" horiz-adv-x="589" 
d="M529 138q0 -85 -69.5 -126t-182.5 -41q-60 0 -119.5 13t-87.5 39v100q27 -37 89 -57t124 -20q156 0 156 111q0 39 -39 66.5t-118 27.5h-80v75h80q64 0 99 26t35 61t-34 59.5t-99 24.5q-67 0 -118.5 -25.5t-72.5 -68.5v103q21 31 77 48.5t115 17.5q95 0 158.5 -42.5
t63.5 -110.5q0 -101 -115 -129q67 -14 102.5 -48t35.5 -104z" />
    <glyph glyph-name="four" unicode="4" horiz-adv-x="587" 
d="M431 125v-125h-85v125h-336l421 481v-406h96v-75h-96zM346 200v197l-170 -197h170z" />
    <glyph glyph-name="five" unicode="5" horiz-adv-x="619" 
d="M80 116q55 -70 200 -70q42 0 83 11t73.5 39.5t32.5 68.5t-31 68.5t-71.5 39.5t-83.5 11q-60 0 -113.5 -15t-81.5 -37l46 326h367v-75h-292l-20 -140q45 16 98 16q66 0 126.5 -21t103 -66.5t42.5 -104.5q0 -62 -47.5 -108.5t-111.5 -67t-129 -20.5q-106 0 -191 43v102z
" />
    <glyph glyph-name="six" unicode="6" horiz-adv-x="669" 
d="M60 164q0 75 96 175l241 250l60 -59l-189 -196q36 17 82 17q59 0 117.5 -23t100 -67.5t41.5 -98.5q0 -50 -26 -89t-68.5 -60t-87.5 -31.5t-90 -10.5q-44 0 -89.5 10t-89 30.5t-71 60.5t-27.5 92zM519 160q0 59 -56.5 87.5t-127.5 28.5t-128 -29.5t-57 -84.5q0 -42 32 -70
t71.5 -37.5t81.5 -9.5q69 0 126.5 28.5t57.5 86.5z" />
    <glyph glyph-name="seven" unicode="7" horiz-adv-x="510" 
d="M154 -48l-73 44l294 487h-345v75h490z" />
    <glyph glyph-name="eight" unicode="8" horiz-adv-x="658" 
d="M60 148q0 44 31 83t84 63q-73 47 -73 119q0 67 66.5 115t160.5 48t160.5 -48t66.5 -115q0 -72 -73 -119q53 -25 84 -63.5t31 -82.5q0 -73 -79 -125t-190 -52t-190 52t-79 125zM150 148q0 -43 51.5 -72.5t127.5 -29.5t127.5 29.5t51.5 72.5t-51.5 73t-127.5 30t-127.5 -30
t-51.5 -73zM192 413q0 -36 41.5 -61.5t99.5 -25.5q57 0 95 25t38 62t-38 62.5t-95 25.5t-99 -26t-42 -62z" />
    <glyph glyph-name="nine" unicode="9" horiz-adv-x="639" 
d="M594 385q0 -75 -96 -175l-241 -250l-60 59l189 196q-36 -17 -82 -17q-59 0 -117.5 23t-100 67.5t-41.5 98.5q0 50 26 89t68.5 60t87.5 31.5t90 10.5q44 0 89.5 -10t89 -30.5t71 -60.5t27.5 -92zM135 389q0 -59 56.5 -87.5t127.5 -28.5t128 29.5t57 84.5q0 42 -32 70
t-71.5 37.5t-81.5 9.5q-69 0 -126.5 -28.5t-57.5 -86.5z" />
    <glyph glyph-name="colon" unicode=":" horiz-adv-x="166" 
d="M83 100q21 0 37 -15.5t16 -36.5q0 -22 -16 -37.5t-37 -15.5q-22 0 -37.5 15.5t-15.5 36.5q0 22 15.5 37.5t37.5 15.5zM83 410q21 0 37 -15.5t16 -36.5q0 -22 -16 -37.5t-37 -15.5q-22 0 -37.5 15.5t-15.5 36.5q0 22 15.5 37.5t37.5 15.5z" />
    <glyph glyph-name="semicolon" unicode=";" horiz-adv-x="257" 
d="M46 -102l46 171h85l-68 -171h-63zM133 410q21 0 37 -15.5t16 -36.5q0 -22 -16 -37.5t-37 -15.5q-22 0 -37.5 15.5t-15.5 36.5q0 22 15.5 37.5t37.5 15.5z" />
    <glyph glyph-name="less" unicode="&#x3c;" horiz-adv-x="597" 
d="M562 33l-517 227v55l517 227v-73l-418 -181l418 -182v-73z" />
    <glyph glyph-name="equal" unicode="=" horiz-adv-x="623" 
d="M564 355h-515v70h515v-70zM564 160h-515v70h515v-70z" />
    <glyph glyph-name="greater" unicode="&#x3e;" horiz-adv-x="584" 
d="M562 260l-517 -227v73l418 182l-418 181v73l517 -227v-55z" />
    <glyph glyph-name="question" unicode="?" horiz-adv-x="458" 
d="M305 509q0 47 -39.5 72t-94.5 25q-48 0 -85.5 -20t-47.5 -58v104q60 49 151 49q86 0 146 -47t60 -133q0 -36 -14.5 -67t-36.5 -51t-47 -41t-47 -38.5t-36.5 -42.5t-14.5 -54v-58h-85v51q0 41 14 74.5t35.5 54t46 42t46 39t35.5 43.5t14 56zM157 84q18 0 31.5 -13
t13.5 -31q0 -19 -13.5 -32t-31.5 -13q-19 0 -32.5 13t-13.5 31q0 19 13.5 32t32.5 13z" />
    <glyph glyph-name="at" unicode="@" horiz-adv-x="1012" 
d="M516 591q62 0 122.5 -13t116 -40t98 -65.5t68 -93.5t25.5 -120q0 -77 -59 -138.5t-157 -61.5q-70 0 -109 34q-57 -31 -138 -31q-74 0 -135 42.5t-61 117.5q0 63 43.5 111t102.5 70t118 22q161 0 161 -109q0 -22 -15 -74t-15 -76q0 -32 51 -32q59 0 93.5 34t34.5 87
q0 123 -102.5 192t-242.5 69q-158 0 -264 -85.5t-106 -198.5q0 -75 38 -133t97 -89t118.5 -46t114.5 -15q85 0 177 35v-84q-82 -26 -177 -26q-116 0 -219 44.5t-168.5 128.5t-65.5 187q0 55 22 108q34 81 105 139t155 84t173 26zM487 135q80 0 109 42l24 114q2 12 2 16
q0 44 -74 44q-66 0 -121.5 -33.5t-55.5 -94.5q0 -43 35 -65.5t81 -22.5z" />
    <glyph glyph-name="A" unicode="A" horiz-adv-x="776" 
d="M665 0l-111 172h-332l-111 -172h-101l378 587l378 -587h-101zM388 430l-118 -183h236z" />
    <glyph glyph-name="B" unicode="B" horiz-adv-x="766" 
d="M706 168q0 -82 -68.5 -125t-155.5 -43h-397v558h339q230 0 230 -150q0 -26 -15.5 -53.5t-37.5 -41.5q43 -13 74 -56t31 -89zM170 75h310q136 0 136 91q0 51 -39 73t-94 22h-313v-186zM423 483h-253v-147h274q120 0 120 71q0 26 -13 43t-38 23.5t-43.5 8t-46.5 1.5z" />
    <glyph glyph-name="C" unicode="C" horiz-adv-x="803" 
d="M150 279q0 -94 90 -159.5t218 -65.5q84 0 154 28t111 78v-105q-112 -76 -265 -76q-165 0 -281.5 88t-116.5 212q0 125 116.5 213t281.5 88q151 0 265 -77v-106q-41 50 -111.5 79t-153.5 29q-128 0 -218 -66t-90 -160z" />
    <glyph glyph-name="D" unicode="D" horiz-adv-x="841" 
d="M393 0h-308v558h308q67 0 132.5 -16t124.5 -47.5t95 -87.5t36 -128t-36 -128t-95 -87.5t-124.5 -47.5t-132.5 -16zM170 483v-408h214q54 0 103.5 9.5t97.5 31t77 63.5t29 100t-29 100t-77 63.5t-97.5 31t-103.5 9.5h-214z" />
    <glyph glyph-name="E" unicode="E" horiz-adv-x="695" 
d="M85 0v558h555v-75h-469v-153h395v-75h-396v-180h470v-75h-555z" />
    <glyph glyph-name="F" unicode="F" horiz-adv-x="680" 
d="M85 0v558h555v-75h-469v-153h395v-75h-396v-255h-85z" />
    <glyph glyph-name="G" unicode="G" horiz-adv-x="868" 
d="M150 279q0 -94 90 -159.5t218 -65.5q68 0 125.5 16t98.5 55.5t41 96.5h-189v75h274q0 -110 -22 -160q-34 -79 -124 -118.5t-204 -39.5q-165 0 -281.5 88t-116.5 212q0 125 116.5 213t281.5 88q151 0 265 -77v-106q-41 50 -111.5 79t-153.5 29q-128 0 -218 -66t-90 -160z
" />
    <glyph glyph-name="H" unicode="H" horiz-adv-x="827" 
d="M657 0v263h-487v-263h-85v558h85v-220h487v220h85v-558h-85z" />
    <glyph glyph-name="I" unicode="I" horiz-adv-x="285" 
d="M185 0h-85v558h85v-558z" />
    <glyph glyph-name="J" unicode="J" horiz-adv-x="257" 
d="M-80 -111q27 -9 58 -9q68 0 88.5 27.5t20.5 85.5v565h85v-520q0 -111 -16 -147q-36 -83 -165 -83q-33 0 -71 8v73z" />
    <glyph glyph-name="K" unicode="K" horiz-adv-x="715" 
d="M170 185v-185h-85v558h85v-281l325 281h111l-210 -184l304 -374h-102l-272 317z" />
    <glyph glyph-name="L" unicode="L" horiz-adv-x="639" 
d="M170 558v-483h459v-75h-544v558h85z" />
    <glyph glyph-name="M" unicode="M" horiz-adv-x="1083" 
d="M262 403l-147 -403h-90l213 590l303 -464l304 464l213 -590h-91l-146 403l-279 -432z" />
    <glyph glyph-name="N" unicode="N" horiz-adv-x="825" 
d="M170 0h-85v590l570 -446v414h85v-587l-570 439v-410z" />
    <glyph glyph-name="O" unicode="O" horiz-adv-x="916" 
d="M60 279q0 125 116.5 213t281.5 88t281.5 -88t116.5 -213q0 -124 -116.5 -212t-281.5 -88t-281.5 88t-116.5 212zM150 279q0 -94 90 -159.5t218 -65.5t218 65.5t90 159.5t-90 160t-218 66t-218 -66t-90 -160z" />
    <glyph glyph-name="P" unicode="P" horiz-adv-x="698" 
d="M185 250v-250h-85v558h342q88 0 152 -37t64 -117t-64 -117t-152 -37h-257zM185 483v-158h247q72 0 104 19.5t32 59.5t-32 59.5t-104 19.5h-247z" />
    <glyph glyph-name="Q" unicode="Q" horiz-adv-x="906" 
d="M60 279q0 125 116.5 213t281.5 88t281.5 -88t116.5 -213q0 -98 -74.5 -175.5t-193.5 -107.5l236 -137l-38 -65l-261 151q-26 15 -51 22.5t-65.5 13.5t-54.5 9q-129 26 -211.5 106t-82.5 183zM150 279q0 -94 90 -159.5t218 -65.5t218 65.5t90 159.5t-90 160t-218 66
t-218 -66t-90 -160z" />
    <glyph glyph-name="R" unicode="R" horiz-adv-x="739" 
d="M170 250v-250h-85v558h342q88 0 152 -37t64 -117q0 -62 -39 -98t-101 -49l166 -257h-100l-158 250h-241zM170 483v-158h247q72 0 104 19.5t32 59.5t-32 59.5t-104 19.5h-247z" />
    <glyph glyph-name="S" unicode="S" horiz-adv-x="672" 
d="M625 153q0 -60 -44.5 -101t-108 -57t-142.5 -16q-81 0 -155.5 17t-115.5 45v97q38 -33 116.5 -58.5t156.5 -25.5q89 0 146 28t57 64q0 33 -36.5 53.5t-90.5 28t-118 20t-118 27.5t-90.5 51.5t-36.5 91.5q0 52 42.5 89t103 52.5t130.5 15.5q76 0 143 -14t102 -40v-90
q-98 69 -255 69q-24 0 -51 -4t-56 -12.5t-48 -26t-19 -40.5q0 -34 36 -55.5t90.5 -30t117.5 -20.5t117.5 -25.5t90.5 -47.5t36 -85z" />
    <glyph glyph-name="T" unicode="T" horiz-adv-x="674" 
d="M295 483h-285v75h654v-75h-284v-483h-85v483z" />
    <glyph glyph-name="U" unicode="U" horiz-adv-x="772" 
d="M607 269v289h85v-303q0 -134 -90 -205t-216 -71t-216 71t-90 205v303h85v-289q0 -104 65.5 -159.5t155.5 -55.5t155.5 55.5t65.5 159.5z" />
    <glyph glyph-name="V" unicode="V" horiz-adv-x="776" 
d="M111 558l277 -430l277 430h101l-378 -587l-378 587h101z" />
    <glyph glyph-name="W" unicode="W" horiz-adv-x="1062" 
d="M531 590l208 -432l210 400h93l-303 -587l-208 425l-208 -425l-303 587h93l210 -400z" />
    <glyph glyph-name="X" unicode="X" horiz-adv-x="711" 
d="M696 558l-280 -274l280 -284h-118l-222 224l-223 -224h-118l280 284l-280 274h121l220 -214l219 214h121z" />
    <glyph glyph-name="Y" unicode="Y" horiz-adv-x="753" 
d="M132 558l244 -236l245 236h122l-324 -314v-244h-85v244l-324 314h122z" />
    <glyph glyph-name="Z" unicode="Z" horiz-adv-x="727" 
d="M81 558h616l-473 -483h470v-75h-664l475 483h-424v75z" />
    <glyph glyph-name="bracketleft" unicode="[" horiz-adv-x="263" 
d="M137 693v-772h119v-35h-206v841h207v-34h-120z" />
    <glyph glyph-name="backslash" unicode="\" horiz-adv-x="363" 
d="M329 -88h-67l-255 752h66z" />
    <glyph glyph-name="bracketright" unicode="]" horiz-adv-x="262" 
d="M170 -79v772h-120v34h207v-841h-206v35h119z" />
    <glyph glyph-name="asciicircum" unicode="^" horiz-adv-x="506" 
d="M478 311h-75l-149 267l-149 -267h-75l202 361h45z" />
    <glyph glyph-name="underscore" unicode="_" horiz-adv-x="507" 
d="M507 -69h-506v67h506v-67z" />
    <glyph glyph-name="grave" unicode="`" horiz-adv-x="262" 
d="M271 641h-68l-161 154l63 31z" />
    <glyph glyph-name="a" unicode="a" horiz-adv-x="703" 
d="M594 0l-99 153h-289l-98 -153h-98l341 531l342 -531h-99zM351 378l-98 -152h195z" />
    <glyph glyph-name="b" unicode="b" horiz-adv-x="718" 
d="M658 153q0 -75 -62 -114t-141 -39h-355v502h304q207 0 207 -137q0 -47 -42 -82q37 -13 63 -51t26 -79zM182 74h271q117 0 117 77q0 44 -33.5 62t-80.5 18h-274v-157zM403 428h-221v-123h239q103 0 103 59q0 22 -11 36t-32.5 19.5t-37.5 7t-40 1.5z" />
    <glyph glyph-name="c" unicode="c" horiz-adv-x="735" 
d="M148 252q0 -81 78.5 -138t189.5 -57q74 0 137 27t102 74v-107q-103 -69 -239 -69q-148 0 -252 79t-104 191t104 191.5t252 79.5q135 0 239 -70v-108q-39 48 -102.5 75.5t-136.5 27.5q-111 0 -189.5 -57t-78.5 -139z" />
    <glyph glyph-name="d" unicode="d" horiz-adv-x="770" 
d="M362 0h-277v502h277q60 0 119 -14t111.5 -42.5t85 -79t32.5 -115.5t-32.5 -115.5t-85 -79t-111.5 -42.5t-119 -14zM169 428v-354h186q36 0 71 4.5t71.5 17t63 31.5t44 51t17.5 73t-17.5 73t-44 51t-63 31.5t-71.5 17t-71 4.5h-186z" />
    <glyph glyph-name="e" unicode="e" horiz-adv-x="640" 
d="M85 0v502h500v-74h-415v-128h349v-75h-350v-151h416v-74h-500z" />
    <glyph glyph-name="f" unicode="f" horiz-adv-x="625" 
d="M85 0v502h500v-74h-415v-128h349v-75h-350v-225h-84z" />
    <glyph glyph-name="g" unicode="g" horiz-adv-x="791" 
d="M148 252q0 -81 78.5 -138t190.5 -57q91 0 159.5 35.5t71.5 105.5h-167v74h250q0 -103 -20 -148q-32 -68 -113 -105t-181 -37q-148 0 -252.5 79t-104.5 191t104.5 191.5t252.5 79.5q133 0 239 -70v-108q-39 48 -103 75.5t-136 27.5q-112 0 -190.5 -57t-78.5 -139z" />
    <glyph glyph-name="h" unicode="h" horiz-adv-x="760" 
d="M592 0v233h-424v-233h-83v502h83v-195h424v195h83v-502h-83z" />
    <glyph glyph-name="i" unicode="i" horiz-adv-x="282" 
d="M182 0h-82v502h82v-502z" />
    <glyph glyph-name="j" unicode="j" horiz-adv-x="236" 
d="M-80 -94l4 3q28 -7 51 -7q57 0 74.5 23t17.5 73v504h84v-465q0 -98 -15 -131q-36 -76 -150 -76q-28 0 -66 8v68z" />
    <glyph glyph-name="k" unicode="k" horiz-adv-x="663" 
d="M172 165v-165h-82v502h82v-244l283 244h111l-191 -167l274 -335h-103l-240 279z" />
    <glyph glyph-name="l" unicode="l" horiz-adv-x="586" 
d="M169 502v-428h407v-74h-491v502h84z" />
    <glyph glyph-name="m" unicode="m" horiz-adv-x="977" 
d="M862 0l-128 348l-245 -367l-245 367l-128 -348h-86l193 528l266 -398l266 398l193 -528h-86z" />
    <glyph glyph-name="n" unicode="n" horiz-adv-x="765" 
d="M172 0h-82v524l505 -380v358h82v-522l-505 382v-362z" />
    <glyph glyph-name="o" unicode="o" horiz-adv-x="833" 
d="M60 250q0 112 104.5 191.5t252.5 79.5t252 -79.5t104 -191.5t-104 -191t-252 -79t-252.5 79t-104.5 191zM148 250q0 -81 78.5 -138t190.5 -57q111 0 189.5 57t78.5 138q0 82 -78.5 139t-189.5 57q-112 0 -190.5 -57t-78.5 -139z" />
    <glyph glyph-name="p" unicode="p" horiz-adv-x="642" 
d="M183 221v-221h-83v502h307q51 0 92.5 -12t72 -45t30.5 -83t-30.5 -83.5t-72.5 -45.5t-92 -12h-224zM183 428v-133h216q116 0 116 67q0 66 -116 66h-216z" />
    <glyph glyph-name="q" unicode="q" horiz-adv-x="823" 
d="M60 252q0 112 104.5 191.5t252.5 79.5t252 -79.5t104 -191.5q0 -86 -64 -155t-167 -97l204 -119l-38 -63l-234 135q-13 7 -34.5 14t-36 10t-44 8.5t-35.5 6.5q-115 24 -189.5 95.5t-74.5 164.5zM148 252q0 -81 78.5 -138t190.5 -57q111 0 189.5 57t78.5 138
q0 82 -78.5 139t-189.5 57q-112 0 -190.5 -57t-78.5 -139z" />
    <glyph glyph-name="r" unicode="r" horiz-adv-x="699" 
d="M183 221v-221h-83v502h308q50 0 91.5 -12t72 -45t30.5 -83q0 -104 -122 -134l149 -228h-97l-141 221h-208zM183 428v-133h216q116 0 116 67q0 66 -116 66h-216z" />
    <glyph glyph-name="s" unicode="s" horiz-adv-x="615" 
d="M568 140q0 -55 -39.5 -92t-97 -52t-127.5 -15q-72 0 -139 15.5t-105 41.5v97q36 -32 106 -55.5t140 -23.5q77 0 126 23t49 54q0 17 -14 30.5t-42.5 23t-53 14.5t-64.5 12q-32 5 -53 8.5t-50.5 10.5t-49.5 14.5t-42 20t-35 27t-21.5 35t-8.5 45.5q0 36 22 64.5t58.5 45
t79.5 25t89 8.5q67 0 128 -13t92 -36v-89q-92 64 -229 64q-30 0 -61.5 -5.5t-60.5 -22t-29 -42.5q0 -13 6.5 -24t21.5 -19.5t28.5 -14t39 -11t41 -8.5t45.5 -8q37 -6 60 -10t56.5 -12t53.5 -18.5t40.5 -25.5t30 -35.5t9.5 -46.5z" />
    <glyph glyph-name="t" unicode="t" horiz-adv-x="608" 
d="M262 428h-252v74h588v-74h-252v-428h-84v428z" />
    <glyph glyph-name="u" unicode="u" 
d="M546 242v260h84v-273q0 -120 -81.5 -184t-194.5 -64t-193.5 64t-80.5 184v273h82v-260q0 -89 57 -137.5t135 -48.5q79 0 135.5 48t56.5 138z" />
    <glyph glyph-name="v" unicode="v" horiz-adv-x="703" 
d="M351 -19l-334 520h98l236 -367l236 367h99z" />
    <glyph glyph-name="w" unicode="w" horiz-adv-x="959" 
d="M479 526l184 -364l183 340h93l-276 -523l-184 368l-184 -368l-275 523h92l183 -340z" />
    <glyph glyph-name="x" unicode="x" horiz-adv-x="644" 
d="M634 502l-252 -246l252 -256h-117l-194 197l-196 -197h-117l252 256l-252 246h120l193 -187l191 187h120z" />
    <glyph glyph-name="y" unicode="y" horiz-adv-x="689" 
d="M130 502l213 -207l216 207h120l-293 -283v-219h-83v219l-293 283h120z" />
    <glyph glyph-name="z" unicode="z" horiz-adv-x="671" 
d="M81 502h560l-419 -428h411v-74h-603l421 428h-370v74z" />
    <glyph glyph-name="braceleft" unicode="{" horiz-adv-x="310" 
d="M266 -163h-34q-49 0 -77 24t-35 60.5t-9.5 82.5t-1.5 87.5t-10.5 77.5t-36.5 51l-34 7v32l34 7q25 15 36.5 51t10.5 77.5t1.5 87.5t9.5 82.5t35 60.5t77 24h34v-34q-39 -26 -54 -43.5t-16 -41.5l-5 -87q-3 -50 -6 -77.5t-16 -67t-36 -55.5q23 -16 36 -55.5t16 -67
t6 -77.5l5 -87q1 -24 16 -41.5t54 -43.5v-34z" />
    <glyph glyph-name="bar" unicode="|" horiz-adv-x="235" 
d="M157 -203h-75v878h75v-878z" />
    <glyph glyph-name="braceright" unicode="}" horiz-adv-x="310" 
d="M59 -163h-34v34q39 26 54 43.5t16 41.5l5 87q3 50 6 77.5t16 67t36 55.5q-23 16 -36 55.5t-16 67t-6 77.5l-5 87q-1 24 -16 41.5t-54 43.5v34h34q49 0 77 -24t35 -60.5t9.5 -82.5t1.5 -87.5t10.5 -77.5t36.5 -51l34 -7v-32l-34 -7q-25 -15 -36.5 -51t-10.5 -77.5
t-1.5 -87.5t-9.5 -82.5t-35 -60.5t-77 -24z" />
    <glyph glyph-name="asciitilde" unicode="~" horiz-adv-x="584" 
d="M498 367l49 -26q-12 -55 -46 -91t-86 -36q-46 0 -128.5 37t-115.5 37q-54 0 -81 -80l-48 24q13 58 47.5 94.5t88.5 36.5q30 0 119.5 -37.5t123.5 -37.5q55 0 77 79z" />
    <glyph glyph-name="exclamdown" unicode="&#xa1;" horiz-adv-x="248" 
d="M73 -118l33 443h30l33 -443h-96zM120 412q-18 0 -31.5 13t-13.5 31q0 19 13.5 32t31.5 13q19 0 32.5 -13t13.5 -31q0 -19 -13.5 -32t-32.5 -13z" />
    <glyph glyph-name="cent" unicode="&#xa2;" horiz-adv-x="735" 
d="M452 -146h-75v130q-135 11 -226 87.5t-91 180.5t91 181t226 88v129h75v-128q112 -9 203 -69v-108q-41 48 -103.5 75t-133.5 27q-113 0 -191.5 -56t-78.5 -139q0 -84 80 -139.5t194 -55.5q71 0 132 27t101 74v-107q-87 -59 -203 -68v-129z" />
    <glyph glyph-name="sterling" unicode="&#xa3;" horiz-adv-x="585" 
d="M61 234v75h79q-22 58 -22 96q0 84 63.5 135t170.5 51q32 0 79.5 -7t69.5 -19v-135q-31 55 -60.5 70.5t-68.5 15.5q-70 0 -107 -35.5t-37 -94.5q0 -35 14 -77h227v-75h-209q0 -54 -23 -85.5t-80 -73.5h364v-75h-469v75q44 29 75 70.5t31 88.5h-97z" />
    <glyph glyph-name="currency" unicode="&#xa4;" horiz-adv-x="599" 
d="M548 488l-72 -73q53 -65 53 -140q0 -90 -53 -152l75 -75l-26 -26l-75 75q-63 -54 -146 -54q-81 0 -146 54l-76 -75l-26 26l75 75q-53 65 -53 146q0 84 54 146l-81 80l32 27l75 -81q65 54 144 54q84 0 148 -53l75 75zM163 269q0 -56 40 -98.5t100 -42.5q56 0 99 40t43 101
q0 67 -45.5 104t-96.5 37q-58 0 -99 -41t-41 -100z" />
    <glyph glyph-name="yen" unicode="&#xa5;" horiz-adv-x="733" 
d="M624 85h-215v-85h-85v85h-215v53h215v34h-215v53h215v19l-324 314h122l244 -236l245 236h122l-324 -314v-19h215v-53h-215v-34h215v-53z" />
    <glyph glyph-name="brokenbar" unicode="&#xa6;" horiz-adv-x="220" 
d="M149 300h-78v368h78v-368zM149 163v-365h-78v365h78z" />
    <glyph glyph-name="section" unicode="&#xa7;" horiz-adv-x="615" 
d="M558 -69q0 -56 -39 -93t-95.5 -51.5t-127.5 -14.5t-139 16t-105 41v99q37 -32 107.5 -56.5t138.5 -24.5q76 0 125.5 23.5t49.5 53.5q0 37 -52 58.5t-138 23.5q-41 1 -81.5 11t-77 28t-59 49.5t-22.5 71.5q0 69 87 111q-90 39 -90 123q0 67 76.5 105.5t165.5 38.5
q126 0 223 -40v-93q-101 58 -209 58q-21 0 -46 -3t-55 -10.5t-50 -24t-20 -38.5q0 -27 44.5 -43t107.5 -26.5t126 -24.5t107.5 -48t44.5 -86q0 -82 -82 -124q85 -39 85 -110zM470 158q0 32 -51 54t-120 22q-21 0 -46 -3t-55 -10t-50 -23.5t-20 -38.5q0 -33 60 -55.5
t128 -22.5q67 0 110.5 24t43.5 53z" />
    <glyph glyph-name="dieresis" unicode="&#xa8;" horiz-adv-x="354" 
d="M267 749q23 0 39.5 -16t16.5 -39q0 -21 -16.5 -37t-38.5 -16t-38 16t-16 37q0 22 16 38.5t37 16.5zM87 749q22 0 38.5 -16t16.5 -39q0 -21 -16 -37t-39 -16q-22 0 -38 16t-16 37q0 22 16.5 38.5t37.5 16.5z" />
    <glyph glyph-name="copyright" unicode="&#xa9;" horiz-adv-x="880" 
d="M59 335q0 82 33 149t87.5 108t122.5 63t142 22q99 0 185 -37t143 -117t57 -188q0 -82 -33 -148.5t-88 -107.5t-123 -63t-142 -22q-73 0 -141 22t-122.5 63t-87.5 107.5t-33 148.5zM789 335q0 96 -51 167t-128 103.5t-166 32.5q-90 0 -166.5 -32.5t-127.5 -103t-51 -167.5
t51 -167.5t127.5 -103.5t166.5 -33q89 0 166 33t128 103.5t51 167.5zM249 332q0 -49 33.5 -85t81 -51.5t99.5 -15.5q55 0 109.5 21.5t88.5 61.5v-86q-89 -59 -199 -59q-109 0 -195 58.5t-86 156.5t89.5 158.5t200.5 60.5q107 0 190 -54v-87q-33 39 -85.5 60t-105.5 21
t-102 -17t-84 -54.5t-35 -88.5z" />
    <glyph glyph-name="ordfeminine" unicode="&#xaa;" horiz-adv-x="291" 
d="M277 413l5 -9q-54 -31 -74 -31q-29 0 -32 39q-46 -39 -87 -39q-27 0 -48 19.5t-21 46.5q0 19 9 33.5t29 25t34.5 16.5t43.5 14t38 11v5q0 25 -1.5 38.5t-12.5 27t-32 13.5q-24 0 -45 -24.5t-32 -24.5q-13 0 -13 15q0 28 31 44t67 16q59 0 80 -29.5t21 -83.5
q0 -16 -2 -45.5t-2 -40.5q0 -40 28 -40q7 0 16 3zM174 520q-95 -19 -95 -69q0 -19 11 -32t29 -13q55 0 55 83v31z" />
    <glyph glyph-name="guillemotleft" unicode="&#xab;" horiz-adv-x="397" 
d="M337 20l-172 192l171 183l33 -7l-111 -175l108 -179zM192 20l-172 192l171 183l33 -7l-111 -175l108 -179z" />
    <glyph glyph-name="registered" unicode="&#xae;" horiz-adv-x="895" 
d="M59 335q0 82 33 149t87.5 108t122.5 63t142 22q99 0 185 -37t143 -117t57 -188q0 -82 -33 -148.5t-88 -107.5t-123 -63t-142 -22q-73 0 -141 22t-122.5 63t-87.5 107.5t-33 148.5zM789 335q0 96 -51 167t-128 103.5t-166 32.5q-90 0 -166.5 -32.5t-127.5 -103t-51 -167.5
t51 -167.5t127.5 -103.5t166.5 -33q89 0 166 33t128 103.5t51 167.5zM304 315v-187h-63v418h256q67 0 114.5 -27.5t47.5 -87.5q0 -87 -105 -110l125 -193h-75l-119 187h-181zM304 490v-118h186q102 0 102 59t-102 59h-186z" />
    <glyph glyph-name="macron" unicode="&#xaf;" horiz-adv-x="358" 
d="M36 641v54h306v-54h-306z" />
    <glyph glyph-name="degree" unicode="&#xb0;" horiz-adv-x="382" 
d="M339 541q0 -61 -43 -104t-103 -43q-61 0 -104 43t-43 104q0 60 43.5 103.5t103.5 43.5t103 -43.5t43 -103.5zM295 541q0 41 -30.5 71.5t-71.5 30.5q-42 0 -72 -30.5t-30 -71.5q0 -42 30 -72.5t72 -30.5q41 0 71.5 31t30.5 72z" />
    <glyph glyph-name="plusminus" unicode="&#xb1;" horiz-adv-x="627" 
d="M565 284h-223v-223h-71v223h-222v70h222v223h71v-223h223v-70zM533 49v-62h-449v62h449z" />
    <glyph glyph-name="acute" unicode="&#xb4;" horiz-adv-x="274" 
d="M224 832l64 -42l-167 -149h-52z" />
    <glyph glyph-name="mu" unicode="&#xb5;" horiz-adv-x="578" 
d="M107 409q66 12 83 13q0 -45 -2.5 -141t-2.5 -151q0 -92 62 -92q36 0 68.5 41t45.5 104l11 237q11 0 35 0.5t36 0.5l-10 -296q0 -19 1 -30.5t4 -26.5t11 -22.5t20 -7.5q27 0 49 54q10 -4 15 -5q-11 -42 -38 -69t-63 -29q-21 2 -38.5 19.5t-24.5 48.5q-1 4 -2 18.5t-2 26
t-2 11.5q-19 -45 -60.5 -83t-82.5 -38q-45 0 -74 38q-2 -20 -2 -30q0 -41 13 -112l1 -2q4 -38 4 -49q0 -24 -8 -34.5t-29 -10.5q-18 0 -29.5 13.5t-11.5 34.5q0 22 12 82q22 104 22 272q0 111 -11 215z" />
    <glyph glyph-name="mu" unicode="&#x3bc;" horiz-adv-x="578" 
d="M107 409q66 12 83 13q0 -45 -2.5 -141t-2.5 -151q0 -92 62 -92q36 0 68.5 41t45.5 104l11 237q11 0 35 0.5t36 0.5l-10 -296q0 -19 1 -30.5t4 -26.5t11 -22.5t20 -7.5q27 0 49 54q10 -4 15 -5q-11 -42 -38 -69t-63 -29q-21 2 -38.5 19.5t-24.5 48.5q-1 4 -2 18.5t-2 26
t-2 11.5q-19 -45 -60.5 -83t-82.5 -38q-45 0 -74 38q-2 -20 -2 -30q0 -41 13 -112l1 -2q4 -38 4 -49q0 -24 -8 -34.5t-29 -10.5q-18 0 -29.5 13.5t-11.5 34.5q0 22 12 82q22 104 22 272q0 111 -11 215z" />
    <glyph glyph-name="paragraph" unicode="&#xb6;" horiz-adv-x="518" 
d="M494 700v-21q-55 -6 -67 -14q-18 -13 -18 -57v-685q0 -43 14.5 -54t58.5 -16q8 -1 12 -1v-21h-143v827h-62v-827h-142v21q54 6 65 14q19 12 19 56v359q-106 0 -160 57t-54 164t52 152.5t161 45.5h264z" />
    <glyph glyph-name="periodcentered" unicode="&#xb7;" horiz-adv-x="250" 
d="M133 305q21 0 37 -15.5t16 -36.5q0 -22 -16 -37.5t-37 -15.5q-22 0 -37.5 15.5t-15.5 36.5q0 22 15.5 37.5t37.5 15.5z" />
    <glyph glyph-name="cedilla" unicode="&#xb8;" horiz-adv-x="259" 
d="M266 -111q0 -43 -35.5 -71t-81.5 -28q-48 0 -83 26l17 38q47 -13 54 -13q50 0 50 39q0 30 -51 30q-6 0 -17 -0.5t-14 -0.5l58 116h47l-28 -59q36 -2 60 -22t24 -55z" />
    <glyph glyph-name="ordmasculine" unicode="&#xba;" horiz-adv-x="338" 
d="M22 510q0 61 45 100t107 39t103.5 -37t41.5 -98t-43 -100.5t-107 -39.5q-62 0 -104.5 37.5t-42.5 98.5zM169 628q-42 0 -62.5 -31.5t-20.5 -78.5q0 -52 23 -88t68 -36q41 0 60 33.5t19 79.5q0 50 -22 85.5t-65 35.5z" />
    <glyph glyph-name="guillemotright" unicode="&#xbb;" horiz-adv-x="397" 
d="M224 212l-172 -192l-29 14l108 179l-111 175l33 7zM369 212l-172 -192l-29 14l108 179l-111 175l33 7z" />
    <glyph glyph-name="onequarter" unicode="&#xbc;" horiz-adv-x="1082" 
d="M262 215h-64v336l-67 -67l-41 40l109 109h63v-418zM620 660l-254 -746h-77l253 746h78zM913 94v-94h-64v94h-252l316 360v-304h72v-56h-72zM849 150v148l-127 -148h127z" />
    <glyph glyph-name="onehalf" unicode="&#xbd;" horiz-adv-x="1099" 
d="M263 215h-64v336l-67 -67l-41 40l109 109h63v-418zM620 660l-254 -746h-77l253 746h78zM956 56v-56h-356v56q16 9 51.5 27t57 30t53 30t51 33.5t39 34.5t28.5 38t9 39q0 43 -30.5 63t-79.5 20q-48 0 -93.5 -18.5t-63.5 -50.5v76q48 49 159 49q81 0 128 -37t47 -95
q0 -26 -6.5 -49t-24.5 -44.5t-30 -35t-44 -33.5t-42.5 -26.5t-50 -27t-45.5 -23.5h243z" />
    <glyph glyph-name="threequarters" unicode="&#xbe;" horiz-adv-x="1197" 
d="M415 318q0 -63 -52.5 -94t-136.5 -31q-113 0 -156 39v75q21 -28 67.5 -43t92.5 -15q117 0 117 84q0 29 -29.5 49.5t-88.5 20.5h-60v56h60q48 0 74.5 19.5t26.5 46.5q0 26 -26 44.5t-74 18.5q-50 0 -88.5 -19.5t-54.5 -51.5v77q16 23 57.5 36.5t86.5 13.5q71 0 118.5 -32
t47.5 -83q0 -76 -86 -97q51 -10 77.5 -35.5t26.5 -78.5zM753 660l-254 -746h-77l253 746h78zM1015 94v-94h-64v94h-252l316 360v-304h72v-56h-72zM951 150v148l-127 -148h127z" />
    <glyph glyph-name="questiondown" unicode="&#xbf;" horiz-adv-x="458" 
d="M123 -10q0 -47 39.5 -72t94.5 -25q48 0 85.5 20t47.5 58v-104q-60 -49 -151 -49q-86 0 -146 47t-60 133q0 36 14.5 67t36.5 51t47 41t47 38.5t36.5 42.5t14.5 54v58h85v-51q0 -41 -14 -74.5t-35.5 -54t-46 -42t-46 -39t-35.5 -43.5t-14 -56zM271 415q-18 0 -31.5 13
t-13.5 31q0 19 13.5 32t31.5 13q19 0 32.5 -13t13.5 -31q0 -19 -13.5 -32t-32.5 -13z" />
    <glyph glyph-name="Agrave" unicode="&#xc0;" horiz-adv-x="776" 
d="M665 0l-111 172h-332l-111 -172h-101l378 587l378 -587h-101zM388 430l-118 -183h236zM416 639h-68l-161 154l63 31z" />
    <glyph glyph-name="Aacute" unicode="&#xc1;" horiz-adv-x="776" 
d="M665 0l-111 172h-332l-111 -172h-101l378 587l378 -587h-101zM388 430l-118 -183h236zM516 830l64 -42l-167 -149h-52z" />
    <glyph glyph-name="Acircumflex" unicode="&#xc2;" horiz-adv-x="776" 
d="M665 0l-111 172h-332l-111 -172h-101l378 587l378 -587h-101zM388 430l-118 -183h236zM537 635l-49 4l-104 96l-103 -96l-48 -6l128 187h49z" />
    <glyph glyph-name="Atilde" unicode="&#xc3;" horiz-adv-x="776" 
d="M665 0l-111 172h-332l-111 -172h-101l378 587l378 -587h-101zM388 430l-118 -183h236zM471 703q11 0 24 16t17 32h37q-3 -45 -29.5 -78.5t-65.5 -33.5q-38 0 -80.5 23.5t-63.5 23.5q-13 0 -23.5 -14.5t-13.5 -32.5h-37q1 44 28.5 78t70.5 34q23 0 71 -24t65 -24z" />
    <glyph glyph-name="Adieresis" unicode="&#xc4;" horiz-adv-x="776" 
d="M665 0l-111 172h-332l-111 -172h-101l378 587l378 -587h-101zM388 430l-118 -183h236zM477 747q23 0 39.5 -16t16.5 -39q0 -21 -16.5 -37t-38.5 -16t-38 16t-16 37q0 22 16 38.5t37 16.5zM297 747q22 0 38.5 -16t16.5 -39q0 -21 -16 -37t-39 -16q-22 0 -38 16t-16 37
q0 22 16.5 38.5t37.5 16.5z" />
    <glyph glyph-name="Aring" unicode="&#xc5;" horiz-adv-x="776" 
d="M665 0l-111 172h-332l-111 -172h-101l378 587l378 -587h-101zM388 430l-118 -183h236zM485 722q0 -42 -28.5 -70.5t-68.5 -28.5t-69 28.5t-29 69.5q0 39 29 68t69 29t68.5 -29t28.5 -67zM438 722q0 19 -15.5 34t-34.5 15q-20 0 -35 -14.5t-15 -34.5q0 -22 15 -37t35 -15
q21 0 35.5 15.5t14.5 36.5z" />
    <glyph glyph-name="AE" unicode="&#xc6;" horiz-adv-x="909" 
d="M370 0v184h-156l-121 -188h-101l362 562h461v-75h-359v-153h285v-75h-286v-180h360v-75h-445zM370 426l-108 -167h108v167z" />
    <glyph glyph-name="Ccedilla" unicode="&#xc7;" horiz-adv-x="778" 
d="M489 -111q0 -43 -35.5 -71t-81.5 -28q-48 0 -83 26l17 38q47 -13 54 -13q50 0 50 39q0 30 -51 30q-7 0 -17 -0.5t-14 -0.5l39 78q-134 24 -220.5 105t-86.5 187q0 125 116.5 213t281.5 88q151 0 265 -77v-106q-41 50 -111.5 79t-153.5 29q-128 0 -218 -66t-90 -160
t90 -159.5t218 -65.5q84 0 154 28t111 78v-105q-112 -76 -265 -76q-16 0 -46 2l-7 -15q36 -2 60 -22t24 -55z" />
    <glyph glyph-name="Egrave" unicode="&#xc8;" horiz-adv-x="695" 
d="M85 0v558h555v-75h-469v-153h395v-75h-396v-180h470v-75h-555zM391 639h-68l-161 154l63 31z" />
    <glyph glyph-name="Eacute" unicode="&#xc9;" horiz-adv-x="695" 
d="M85 0v558h555v-75h-469v-153h395v-75h-396v-180h470v-75h-555zM491 830l64 -42l-167 -149h-52z" />
    <glyph glyph-name="Ecircumflex" unicode="&#xca;" horiz-adv-x="695" 
d="M85 0v558h555v-75h-469v-153h395v-75h-396v-180h470v-75h-555zM512 635l-49 4l-104 96l-103 -96l-48 -6l128 187h49z" />
    <glyph glyph-name="Edieresis" unicode="&#xcb;" horiz-adv-x="695" 
d="M85 0v558h555v-75h-469v-153h395v-75h-396v-180h470v-75h-555zM452 747q23 0 39.5 -16t16.5 -39q0 -21 -16.5 -37t-38.5 -16t-38 16t-16 37q0 22 16 38.5t37 16.5zM272 747q22 0 38.5 -16t16.5 -39q0 -21 -16 -37t-39 -16q-22 0 -38 16t-16 37q0 22 16.5 38.5t37.5 16.5z
" />
    <glyph glyph-name="Igrave" unicode="&#xcc;" horiz-adv-x="285" 
d="M185 0h-85v558h85v-558zM169 641h-68l-161 154l63 31z" />
    <glyph glyph-name="Iacute" unicode="&#xcd;" horiz-adv-x="285" 
d="M185 0h-85v558h85v-558zM269 832l64 -42l-167 -149h-52z" />
    <glyph glyph-name="Icircumflex" unicode="&#xce;" horiz-adv-x="285" 
d="M185 0h-85v558h85v-558zM290 637l-49 4l-104 96l-103 -96l-48 -6l128 187h49z" />
    <glyph glyph-name="Idieresis" unicode="&#xcf;" horiz-adv-x="285" 
d="M185 0h-85v558h85v-558zM230 749q23 0 39.5 -16t16.5 -39q0 -21 -16.5 -37t-38.5 -16t-38 16t-16 37q0 22 16 38.5t37 16.5zM50 749q22 0 38.5 -16t16.5 -39q0 -21 -16 -37t-39 -16q-22 0 -38 16t-16 37q0 22 16.5 38.5t37.5 16.5z" />
    <glyph glyph-name="Eth" unicode="&#xd0;" horiz-adv-x="811" 
d="M70 558h288q192 0 300 -80t108 -199t-108 -199t-300 -80h-288v241h-69v75h69v242zM155 75h199q150 0 230 59.5t80 144.5q0 84 -82 144t-228 60h-199v-167h59v-75h-59v-166z" />
    <glyph glyph-name="Ntilde" unicode="&#xd1;" horiz-adv-x="833" 
d="M175 0h-85v590l570 -446v414h85v-587l-570 439v-410zM500 703q11 0 24 16t17 32h37q-3 -45 -29.5 -78.5t-65.5 -33.5q-38 0 -80.5 23.5t-63.5 23.5q-13 0 -23.5 -14.5t-13.5 -32.5h-37q1 44 29 78t70 34q23 0 71 -24t65 -24z" />
    <glyph glyph-name="Ograve" unicode="&#xd2;" horiz-adv-x="916" 
d="M60 279q0 125 116.5 213t281.5 88t281.5 -88t116.5 -213q0 -124 -116.5 -212t-281.5 -88t-281.5 88t-116.5 212zM150 279q0 -94 90 -159.5t218 -65.5t218 65.5t90 159.5t-90 160t-218 66t-218 -66t-90 -160zM487 641h-68l-161 154l63 31z" />
    <glyph glyph-name="Oacute" unicode="&#xd3;" horiz-adv-x="916" 
d="M60 279q0 125 116.5 213t281.5 88t281.5 -88t116.5 -213q0 -124 -116.5 -212t-281.5 -88t-281.5 88t-116.5 212zM150 279q0 -94 90 -159.5t218 -65.5t218 65.5t90 159.5t-90 160t-218 66t-218 -66t-90 -160zM587 832l64 -42l-167 -149h-52z" />
    <glyph glyph-name="Ocircumflex" unicode="&#xd4;" horiz-adv-x="916" 
d="M60 279q0 125 116.5 213t281.5 88t281.5 -88t116.5 -213q0 -124 -116.5 -212t-281.5 -88t-281.5 88t-116.5 212zM150 279q0 -94 90 -159.5t218 -65.5t218 65.5t90 159.5t-90 160t-218 66t-218 -66t-90 -160zM608 637l-49 4l-104 96l-103 -96l-48 -6l128 187h49z" />
    <glyph glyph-name="Otilde" unicode="&#xd5;" horiz-adv-x="910" 
d="M50 279q0 125 116.5 213t281.5 88t281.5 -88t116.5 -213q0 -124 -116.5 -212t-281.5 -88t-281.5 88t-116.5 212zM140 279q0 -94 90 -159.5t218 -65.5t218 65.5t90 159.5t-90 160t-218 66t-218 -66t-90 -160zM525 705q11 0 24 16t17 32h37q-3 -45 -29.5 -78.5t-65.5 -33.5
q-38 0 -80.5 23.5t-63.5 23.5q-13 0 -23.5 -14.5t-13.5 -32.5h-37q1 44 28.5 78t70.5 34q23 0 71 -24t65 -24z" />
    <glyph glyph-name="Odieresis" unicode="&#xd6;" horiz-adv-x="916" 
d="M60 279q0 125 116.5 213t281.5 88t281.5 -88t116.5 -213q0 -124 -116.5 -212t-281.5 -88t-281.5 88t-116.5 212zM150 279q0 -94 90 -159.5t218 -65.5t218 65.5t90 159.5t-90 160t-218 66t-218 -66t-90 -160zM548 749q23 0 39.5 -16t16.5 -39q0 -21 -16.5 -37t-38.5 -16
t-38 16t-16 37q0 22 16 38.5t37 16.5zM368 749q22 0 38.5 -16t16.5 -39q0 -21 -16 -37t-39 -16q-22 0 -38 16t-16 37q0 22 16.5 38.5t37.5 16.5z" />
    <glyph glyph-name="multiply" unicode="&#xd7;" horiz-adv-x="581" 
d="M490 520l50 -50l-184 -182l184 -184l-50 -50l-184 183l-183 -184l-50 51l183 184l-183 182l50 51l183 -184z" />
    <glyph glyph-name="Oslash" unicode="&#xd8;" horiz-adv-x="916" 
d="M617 660l-33 -96q120 -30 196 -108.5t76 -176.5q0 -124 -116.5 -212t-281.5 -88q-33 0 -71 5l-24 -70h-77l29 85q-113 33 -184 109t-71 171q0 125 116.5 213t281.5 88q26 0 53 -3l28 83h78zM766 279q0 73 -57.5 131t-148.5 82l-149 -436q30 -2 47 -2q128 0 218 65.5
t90 159.5zM150 279q0 -70 52.5 -126.5t136.5 -81.5l147 433q-5 0 -14.5 0.5t-13.5 0.5q-128 0 -218 -66t-90 -160z" />
    <glyph glyph-name="Ugrave" unicode="&#xd9;" horiz-adv-x="772" 
d="M607 269v289h85v-303q0 -134 -90 -205t-216 -71t-216 71t-90 205v303h85v-289q0 -104 65.5 -159.5t155.5 -55.5t155.5 55.5t65.5 159.5zM413 641h-68l-161 154l63 31z" />
    <glyph glyph-name="Uacute" unicode="&#xda;" horiz-adv-x="772" 
d="M607 269v289h85v-303q0 -134 -90 -205t-216 -71t-216 71t-90 205v303h85v-289q0 -104 65.5 -159.5t155.5 -55.5t155.5 55.5t65.5 159.5zM513 832l64 -42l-167 -149h-52z" />
    <glyph glyph-name="Ucircumflex" unicode="&#xdb;" horiz-adv-x="772" 
d="M607 269v289h85v-303q0 -134 -90 -205t-216 -71t-216 71t-90 205v303h85v-289q0 -104 65.5 -159.5t155.5 -55.5t155.5 55.5t65.5 159.5zM534 637l-49 4l-104 96l-103 -96l-48 -6l128 187h49z" />
    <glyph glyph-name="Udieresis" unicode="&#xdc;" horiz-adv-x="772" 
d="M607 269v289h85v-303q0 -134 -90 -205t-216 -71t-216 71t-90 205v303h85v-289q0 -104 65.5 -159.5t155.5 -55.5t155.5 55.5t65.5 159.5zM474 749q23 0 39.5 -16t16.5 -39q0 -21 -16.5 -37t-38.5 -16t-38 16t-16 37q0 22 16 38.5t37 16.5zM294 749q22 0 38.5 -16t16.5 -39
q0 -21 -16 -37t-39 -16q-22 0 -38 16t-16 37q0 22 16.5 38.5t37.5 16.5z" />
    <glyph glyph-name="Yacute" unicode="&#xdd;" horiz-adv-x="753" 
d="M132 558l244 -236l245 236h122l-324 -314v-244h-85v244l-324 314h122zM505 832l64 -42l-167 -149h-52z" />
    <glyph glyph-name="Thorn" unicode="&#xde;" horiz-adv-x="705" 
d="M405 154h-215v-154h-84v559h84v-124h215q103 0 152.5 -40t49.5 -100q0 -61 -49.5 -101t-152.5 -40zM190 229h215q55 0 86 19.5t31 46.5q0 26 -31 45.5t-86 19.5h-215v-131z" />
    <glyph glyph-name="germandbls" unicode="&#xdf;" horiz-adv-x="736" 
d="M155 0h-85v421q0 28 9.5 50.5t22.5 36.5t36 24t41 15t46.5 7.5t44 3t41.5 0.5h69q26 0 42.5 -0.5t46.5 -3t50 -7.5t44.5 -15t39 -24t25 -36.5t10.5 -50.5q0 -42 -23 -68.5t-63 -47.5q60 -12 99.5 -48.5t39.5 -95.5q0 -38 -12.5 -66.5t-37 -45.5t-49 -27.5t-62 -15
t-61 -5.5t-60.5 -1h-129v75h151q30 0 47 0.5t41.5 5t37 13.5t22.5 25.5t10 41.5q0 28 -9 47t-21 29t-33.5 15.5t-37.5 6.5t-41 1h-167v75h116q24 0 38.5 0.5t36 5t34 12.5t22 24.5t9.5 40.5q0 64 -122 64h-127q-28 0 -48.5 -2.5t-41 -8.5t-31.5 -19.5t-11 -33.5v-418z" />
    <glyph glyph-name="agrave" unicode="&#xe0;" horiz-adv-x="703" 
d="M594 0l-99 153h-289l-98 -153h-98l341 531l342 -531h-99zM351 378l-98 -152h195zM382 579h-68l-161 154l63 31z" />
    <glyph glyph-name="aacute" unicode="&#xe1;" horiz-adv-x="703" 
d="M594 0l-99 153h-289l-98 -153h-98l341 531l342 -531h-99zM351 378l-98 -152h195zM482 770l64 -42l-167 -149h-52z" />
    <glyph glyph-name="acircumflex" unicode="&#xe2;" horiz-adv-x="703" 
d="M594 0l-99 153h-289l-98 -153h-98l341 531l342 -531h-99zM351 378l-98 -152h195zM503 575l-49 4l-104 96l-103 -96l-48 -6l128 187h49z" />
    <glyph glyph-name="atilde" unicode="&#xe3;" horiz-adv-x="703" 
d="M594 0l-99 153h-289l-98 -153h-98l341 531l342 -531h-99zM351 378l-98 -152h195zM437 643q11 0 24 16t17 32h37q-3 -45 -29.5 -78.5t-65.5 -33.5q-38 0 -80.5 23.5t-63.5 23.5q-13 0 -23.5 -14.5t-13.5 -32.5h-37q1 44 28.5 78t70.5 34q23 0 71 -24t65 -24z" />
    <glyph glyph-name="adieresis" unicode="&#xe4;" horiz-adv-x="703" 
d="M594 0l-99 153h-289l-98 -153h-98l341 531l342 -531h-99zM351 378l-98 -152h195zM443 687q23 0 39.5 -16t16.5 -39q0 -21 -16.5 -37t-38.5 -16t-38 16t-16 37q0 22 16 38.5t37 16.5zM263 687q22 0 38.5 -16t16.5 -39q0 -21 -16 -37t-39 -16q-22 0 -38 16t-16 37
q0 22 16.5 38.5t37.5 16.5z" />
    <glyph glyph-name="aring" unicode="&#xe5;" horiz-adv-x="703" 
d="M594 0l-99 153h-289l-98 -153h-98l341 531l342 -531h-99zM351 378l-98 -152h195zM451 662q0 -42 -28.5 -70.5t-68.5 -28.5t-69 28.5t-29 69.5q0 39 29 68t69 29t68.5 -29t28.5 -67zM404 662q0 19 -15.5 34t-34.5 15q-20 0 -35 -14.5t-15 -34.5q0 -22 15 -37t35 -15
q21 0 35.5 15.5t14.5 36.5z" />
    <glyph glyph-name="ae" unicode="&#xe6;" horiz-adv-x="792" 
d="M355 0v163h-140l-105 -163h-98l343 502h382v-74h-299v-128h234v-75h-235v-151h300v-74h-382zM355 376l-93 -139h93v139z" />
    <glyph glyph-name="ccedilla" unicode="&#xe7;" 
d="M455 -111q0 -43 -35.5 -71t-81.5 -28q-48 0 -83 26l17 38q47 -13 54 -13q50 0 50 39q0 30 -51 30q-7 0 -17 -0.5t-14 -0.5l40 81q-119 20 -196.5 93.5t-77.5 168.5q0 112 104 191.5t252 79.5q135 0 239 -70v-108q-39 48 -102.5 75.5t-136.5 27.5q-111 0 -189.5 -57
t-78.5 -139q0 -81 78.5 -138t189.5 -57q74 0 137 27t102 74v-107q-103 -69 -239 -69q-13 0 -37 2l-8 -18q36 -2 60 -22t24 -55z" />
    <glyph glyph-name="egrave" unicode="&#xe8;" horiz-adv-x="640" 
d="M85 0v502h500v-74h-415v-128h349v-75h-350v-151h416v-74h-500zM367 579h-68l-161 154l63 31z" />
    <glyph glyph-name="eacute" unicode="&#xe9;" horiz-adv-x="640" 
d="M85 0v502h500v-74h-415v-128h349v-75h-350v-151h416v-74h-500zM467 770l64 -42l-167 -149h-52z" />
    <glyph glyph-name="ecircumflex" unicode="&#xea;" horiz-adv-x="640" 
d="M85 0v502h500v-74h-415v-128h349v-75h-350v-151h416v-74h-500zM488 575l-49 4l-104 96l-103 -96l-48 -6l128 187h49z" />
    <glyph glyph-name="edieresis" unicode="&#xeb;" horiz-adv-x="640" 
d="M85 0v502h500v-74h-415v-128h349v-75h-350v-151h416v-74h-500zM428 687q23 0 39.5 -16t16.5 -39q0 -21 -16.5 -37t-38.5 -16t-38 16t-16 37q0 22 16 38.5t37 16.5zM248 687q22 0 38.5 -16t16.5 -39q0 -21 -16 -37t-39 -16q-22 0 -38 16t-16 37q0 22 16.5 38.5t37.5 16.5z
" />
    <glyph glyph-name="igrave" unicode="&#xec;" horiz-adv-x="282" 
d="M182 0h-82v502h82v-502zM169 581h-68l-161 154l63 31z" />
    <glyph glyph-name="iacute" unicode="&#xed;" horiz-adv-x="282" 
d="M182 0h-82v502h82v-502zM269 772l64 -42l-167 -149h-52z" />
    <glyph glyph-name="icircumflex" unicode="&#xee;" horiz-adv-x="282" 
d="M182 0h-82v502h82v-502zM290 577l-49 4l-104 96l-103 -96l-48 -6l128 187h49z" />
    <glyph glyph-name="idieresis" unicode="&#xef;" horiz-adv-x="282" 
d="M182 0h-82v502h82v-502zM230 689q23 0 39.5 -16t16.5 -39q0 -21 -16.5 -37t-38.5 -16t-38 16t-16 37q0 22 16 38.5t37 16.5zM50 689q22 0 38.5 -16t16.5 -39q0 -21 -16 -37t-39 -16q-22 0 -38 16t-16 37q0 22 16.5 38.5t37.5 16.5z" />
    <glyph glyph-name="eth" unicode="&#xf0;" horiz-adv-x="578" 
d="M1 144q0 61 45 105.5t106 64t124 19.5q38 0 78 -9l-92 92l-78 -76l-52 53l77 75l-49 49l53 53l49 -51l72 69l51 -52l-72 -70l112 -115q125 -129 125 -205q0 -49 -27.5 -88t-71 -61t-89.5 -33t-89 -11q-61 0 -120.5 19t-105.5 64.5t-46 107.5zM85 142q0 -40 33 -67.5
t73.5 -37.5t83.5 -10q42 0 82.5 9.5t73.5 37.5t33 70q0 55 -59 84.5t-130 29.5q-44 0 -85 -10t-73 -37.5t-32 -68.5z" />
    <glyph glyph-name="ntilde" unicode="&#xf1;" horiz-adv-x="765" 
d="M172 0h-82v524l505 -380v358h82v-522l-505 382v-362zM473 645q11 0 24 16t17 32h37q-3 -45 -29.5 -78.5t-65.5 -33.5q-38 0 -80.5 23.5t-63.5 23.5q-13 0 -23.5 -14.5t-13.5 -32.5h-37q1 44 28.5 78t70.5 34q23 0 71 -24t65 -24z" />
    <glyph glyph-name="ograve" unicode="&#xf2;" horiz-adv-x="833" 
d="M60 250q0 112 104.5 191.5t252.5 79.5t252 -79.5t104 -191.5t-104 -191t-252 -79t-252.5 79t-104.5 191zM148 250q0 -81 78.5 -138t190.5 -57q111 0 189.5 57t78.5 138q0 82 -78.5 139t-189.5 57q-112 0 -190.5 -57t-78.5 -139zM449 581h-68l-161 154l63 31z" />
    <glyph glyph-name="oacute" unicode="&#xf3;" horiz-adv-x="833" 
d="M60 250q0 112 104.5 191.5t252.5 79.5t252 -79.5t104 -191.5t-104 -191t-252 -79t-252.5 79t-104.5 191zM148 250q0 -81 78.5 -138t190.5 -57q111 0 189.5 57t78.5 138q0 82 -78.5 139t-189.5 57q-112 0 -190.5 -57t-78.5 -139zM549 772l64 -42l-167 -149h-52z" />
    <glyph glyph-name="ocircumflex" unicode="&#xf4;" horiz-adv-x="833" 
d="M60 250q0 112 104.5 191.5t252.5 79.5t252 -79.5t104 -191.5t-104 -191t-252 -79t-252.5 79t-104.5 191zM148 250q0 -81 78.5 -138t190.5 -57q111 0 189.5 57t78.5 138q0 82 -78.5 139t-189.5 57q-112 0 -190.5 -57t-78.5 -139zM570 577l-49 4l-104 96l-103 -96l-48 -6
l128 187h49z" />
    <glyph glyph-name="otilde" unicode="&#xf5;" horiz-adv-x="833" 
d="M60 250q0 112 104.5 191.5t252.5 79.5t252 -79.5t104 -191.5t-104 -191t-252 -79t-252.5 79t-104.5 191zM148 250q0 -81 78.5 -138t190.5 -57q111 0 189.5 57t78.5 138q0 82 -78.5 139t-189.5 57q-112 0 -190.5 -57t-78.5 -139zM504 645q11 0 24 16t17 32h37
q-3 -45 -29.5 -78.5t-65.5 -33.5q-38 0 -80.5 23.5t-63.5 23.5q-13 0 -23.5 -14.5t-13.5 -32.5h-37q1 44 29 78t70 34q23 0 71 -24t65 -24z" />
    <glyph glyph-name="odieresis" unicode="&#xf6;" horiz-adv-x="833" 
d="M60 250q0 112 104.5 191.5t252.5 79.5t252 -79.5t104 -191.5t-104 -191t-252 -79t-252.5 79t-104.5 191zM148 250q0 -81 78.5 -138t190.5 -57q111 0 189.5 57t78.5 138q0 82 -78.5 139t-189.5 57q-112 0 -190.5 -57t-78.5 -139zM510 689q23 0 39.5 -16t16.5 -39
q0 -21 -16.5 -37t-38.5 -16t-38 16t-16 37q0 22 16 38.5t37 16.5zM330 689q22 0 38.5 -16t16.5 -39q0 -21 -16 -37t-39 -16q-22 0 -38 16t-16 37q0 22 16.5 38.5t37.5 16.5z" />
    <glyph glyph-name="divide" unicode="&#xf7;" horiz-adv-x="580" 
d="M353 469q0 -20 -16 -36.5t-37 -16.5q-22 0 -38 16t-16 38t16 38t38 16q21 0 37 -16t16 -39zM559 252h-516v70h516v-70zM301 51q-23 0 -39 16t-16 37q0 22 16 38t39 16q20 0 36.5 -16t16.5 -37t-16.5 -37.5t-36.5 -16.5z" />
    <glyph glyph-name="oslash" unicode="&#xf8;" horiz-adv-x="833" 
d="M60 250q0 112 104.5 191.5t252.5 79.5q47 0 104 -12l61 91l76 -21l-63 -95q81 -36 129.5 -98t48.5 -136q0 -112 -104 -191t-252 -79q-72 0 -144 23l-53 -79l-75 20l59 89q-67 38 -105.5 94.5t-38.5 122.5zM685 250q0 54 -36.5 98.5t-97.5 70.5l-234 -350q48 -14 100 -14
q111 0 189.5 57t78.5 138zM148 250q0 -46 26.5 -85.5t73.5 -66.5l228 343q-32 5 -59 5q-112 0 -190.5 -57t-78.5 -139z" />
    <glyph glyph-name="ugrave" unicode="&#xf9;" 
d="M546 242v260h84v-273q0 -120 -81.5 -184t-194.5 -64t-193.5 64t-80.5 184v273h82v-260q0 -89 57 -137.5t135 -48.5q79 0 135.5 48t56.5 138zM384 581h-68l-161 154l63 31z" />
    <glyph glyph-name="uacute" unicode="&#xfa;" 
d="M546 242v260h84v-273q0 -120 -81.5 -184t-194.5 -64t-193.5 64t-80.5 184v273h82v-260q0 -89 57 -137.5t135 -48.5q79 0 135.5 48t56.5 138zM484 772l64 -42l-167 -149h-52z" />
    <glyph glyph-name="ucircumflex" unicode="&#xfb;" 
d="M546 242v260h84v-273q0 -120 -81.5 -184t-194.5 -64t-193.5 64t-80.5 184v273h82v-260q0 -89 57 -137.5t135 -48.5q79 0 135.5 48t56.5 138zM505 577l-49 4l-104 96l-103 -96l-48 -6l128 187h49z" />
    <glyph glyph-name="udieresis" unicode="&#xfc;" 
d="M546 242v260h84v-273q0 -120 -81.5 -184t-194.5 -64t-193.5 64t-80.5 184v273h82v-260q0 -89 57 -137.5t135 -48.5q79 0 135.5 48t56.5 138zM445 689q23 0 39.5 -16t16.5 -39q0 -21 -16.5 -37t-38.5 -16t-38 16t-16 37q0 22 16 38.5t37 16.5zM265 689q22 0 38.5 -16
t16.5 -39q0 -21 -16 -37t-39 -16q-22 0 -38 16t-16 37q0 22 16.5 38.5t37.5 16.5z" />
    <glyph glyph-name="yacute" unicode="&#xfd;" horiz-adv-x="689" 
d="M130 502l213 -207l216 207h120l-293 -283v-219h-83v219l-293 283h120zM475 772l64 -42l-167 -149h-52z" />
    <glyph glyph-name="thorn" unicode="&#xfe;" horiz-adv-x="611" 
d="M374 142h-215v-142h-84v558h84v-135h215q103 0 152.5 -40t49.5 -100q0 -61 -49.5 -101t-152.5 -40zM159 217h215q55 0 86 19.5t31 46.5q0 26 -31 45.5t-86 19.5h-215v-131z" />
    <glyph glyph-name="ydieresis" unicode="&#xff;" horiz-adv-x="689" 
d="M130 502l213 -207l216 207h120l-293 -283v-219h-83v219l-293 283h120zM436 689q23 0 39.5 -16t16.5 -39q0 -21 -16.5 -37t-38.5 -16t-38 16t-16 37q0 22 16 38.5t37 16.5zM256 689q22 0 38.5 -16t16.5 -39q0 -21 -16 -37t-39 -16q-22 0 -38 16t-16 37q0 22 16.5 38.5
t37.5 16.5z" />
    <glyph glyph-name="Amacron" unicode="&#x100;" horiz-adv-x="776" 
d="M665 0l-111 172h-332l-111 -172h-101l378 587l378 -587h-101zM388 430l-118 -183h236zM235 639v54h306v-54h-306z" />
    <glyph glyph-name="amacron" unicode="&#x101;" horiz-adv-x="703" 
d="M594 0l-99 153h-289l-98 -153h-98l341 531l342 -531h-99zM351 378l-98 -152h195zM201 579v54h306v-54h-306z" />
    <glyph glyph-name="Abreve" unicode="&#x102;" horiz-adv-x="776" 
d="M665 0l-111 172h-332l-111 -172h-101l378 587l378 -587h-101zM388 430l-118 -183h236zM500 800h43q-4 -76 -45 -125.5t-110 -49.5q-68 0 -108.5 49t-44.5 126h43q11 -41 41 -67t70 -26t70 26t41 67z" />
    <glyph glyph-name="abreve" unicode="&#x103;" horiz-adv-x="703" 
d="M594 0l-99 153h-289l-98 -153h-98l341 531l342 -531h-99zM351 378l-98 -152h195zM466 740h43q-4 -76 -45 -125.5t-110 -49.5q-68 0 -108.5 49t-44.5 126h43q11 -41 41 -67t70 -26t70 26t41 67z" />
    <glyph glyph-name="Aogonek" unicode="&#x104;" horiz-adv-x="776" 
d="M816 -75l25 -32q-74 -52 -121 -52q-40 0 -66.5 23t-26.5 60q0 42 34 81l-107 167h-332l-111 -172h-101l378 587l378 -587h-49q-20 -28 -20 -51q0 -21 17 -35t38 -14q27 0 64 25zM388 430l-118 -183h236z" />
    <glyph glyph-name="aogonek" unicode="&#x105;" horiz-adv-x="703" 
d="M744 -75l25 -32q-74 -52 -121 -52q-40 0 -66.5 23t-26.5 60q0 44 35 82l-95 147h-289l-98 -153h-98l341 531l342 -531h-48q-20 -28 -20 -51q0 -21 17 -35t38 -14q27 0 64 25zM351 378l-98 -152h195z" />
    <glyph glyph-name="Cacute" unicode="&#x106;" horiz-adv-x="778" 
d="M150 279q0 -94 90 -159.5t218 -65.5q84 0 154 28t111 78v-105q-112 -76 -265 -76q-165 0 -281.5 88t-116.5 212q0 125 116.5 213t281.5 88q151 0 265 -77v-106q-41 50 -111.5 79t-153.5 29q-128 0 -218 -66t-90 -160zM588 830l64 -42l-167 -149h-52z" />
    <glyph glyph-name="cacute" unicode="&#x107;" 
d="M148 252q0 -81 78.5 -138t189.5 -57q74 0 137 27t102 74v-107q-103 -69 -239 -69q-148 0 -252 79t-104 191t104 191.5t252 79.5q135 0 239 -70v-108q-39 48 -102.5 75.5t-136.5 27.5q-111 0 -189.5 -57t-78.5 -139zM543 770l64 -42l-167 -149h-52z" />
    <glyph glyph-name="Ccircumflex" unicode="&#x108;" horiz-adv-x="778" 
d="M150 279q0 -94 90 -159.5t218 -65.5q84 0 154 28t111 78v-105q-112 -76 -265 -76q-165 0 -281.5 88t-116.5 212q0 125 116.5 213t281.5 88q151 0 265 -77v-106q-41 50 -111.5 79t-153.5 29q-128 0 -218 -66t-90 -160zM609 635l-49 4l-104 96l-103 -96l-48 -6l128 187h49z
" />
    <glyph glyph-name="ccircumflex" unicode="&#x109;" 
d="M148 252q0 -81 78.5 -138t189.5 -57q74 0 137 27t102 74v-107q-103 -69 -239 -69q-148 0 -252 79t-104 191t104 191.5t252 79.5q135 0 239 -70v-108q-39 48 -102.5 75.5t-136.5 27.5q-111 0 -189.5 -57t-78.5 -139zM564 575l-49 4l-104 96l-103 -96l-48 -6l128 187h49z
" />
    <glyph glyph-name="Cdotaccent" unicode="&#x10a;" horiz-adv-x="778" 
d="M150 279q0 -94 90 -159.5t218 -65.5q84 0 154 28t111 78v-105q-112 -76 -265 -76q-165 0 -281.5 88t-116.5 212q0 125 116.5 213t281.5 88q151 0 265 -77v-106q-41 50 -111.5 79t-153.5 29q-128 0 -218 -66t-90 -160zM460 743q20 0 36 -15.5t16 -36.5t-15.5 -36.5
t-36.5 -15.5q-22 0 -38 15.5t-16 36.5q0 22 16 37t38 15z" />
    <glyph glyph-name="cdotaccent" unicode="&#x10b;" 
d="M148 252q0 -81 78.5 -138t189.5 -57q74 0 137 27t102 74v-107q-103 -69 -239 -69q-148 0 -252 79t-104 191t104 191.5t252 79.5q135 0 239 -70v-108q-39 48 -102.5 75.5t-136.5 27.5q-111 0 -189.5 -57t-78.5 -139zM415 683q20 0 36 -15.5t16 -36.5t-15.5 -36.5
t-36.5 -15.5q-22 0 -38 15.5t-16 36.5q0 22 16 37t38 15z" />
    <glyph glyph-name="Ccaron" unicode="&#x10c;" horiz-adv-x="778" 
d="M150 279q0 -94 90 -159.5t218 -65.5q84 0 154 28t111 78v-105q-112 -76 -265 -76q-165 0 -281.5 88t-116.5 212q0 125 116.5 213t281.5 88q151 0 265 -77v-106q-41 50 -111.5 79t-153.5 29q-128 0 -218 -66t-90 -160zM565 824l43 -6l-124 -179h-51l-122 179l41 6
l108 -101z" />
    <glyph glyph-name="ccaron" unicode="&#x10d;" 
d="M148 252q0 -81 78.5 -138t189.5 -57q74 0 137 27t102 74v-107q-103 -69 -239 -69q-148 0 -252 79t-104 191t104 191.5t252 79.5q135 0 239 -70v-108q-39 48 -102.5 75.5t-136.5 27.5q-111 0 -189.5 -57t-78.5 -139zM520 764l43 -6l-124 -179h-51l-122 179l41 6l108 -101z
" />
    <glyph glyph-name="Dcaron" unicode="&#x10e;" horiz-adv-x="811" 
d="M394 0h-308v558h308q67 0 132.5 -16t124.5 -47.5t95 -87.5t36 -128t-36 -128t-95 -87.5t-124.5 -47.5t-132.5 -16zM171 483v-408h214q54 0 103.5 9.5t97.5 31t77 63.5t29 100t-29 100t-77 63.5t-97.5 31t-103.5 9.5h-214zM479 824l43 -6l-124 -179h-51l-122 179l41 6
l108 -101z" />
    <glyph glyph-name="dcaron" unicode="&#x10f;" horiz-adv-x="941" 
d="M362 0h-277v502h277q60 0 119 -14t111.5 -42.5t85 -79t32.5 -115.5t-32.5 -115.5t-85 -79t-111.5 -42.5t-119 -14zM169 428v-354h186q36 0 71 4.5t71.5 17t63 31.5t44 51t17.5 73t-17.5 73t-44 51t-63 31.5t-71.5 17t-71 4.5h-186zM763 391l46 171h85l-68 -171h-63z" />
    <glyph glyph-name="Dmacron" unicode="&#x110;" horiz-adv-x="868" 
d="M396 0h-308v558h308q67 0 132.5 -16t124.5 -47.5t95 -87.5t36 -128t-36 -128t-95 -87.5t-124.5 -47.5t-132.5 -16zM173 483v-408h214q54 0 103.5 9.5t97.5 31t77 63.5t29 100t-29 100t-77 63.5t-97.5 31t-103.5 9.5h-214zM269 641v54h306v-54h-306z" />
    <glyph glyph-name="dcroat" unicode="&#x111;" horiz-adv-x="770" 
d="M362 0h-277v214h-70v75h70v213h277q60 0 119 -14t111.5 -42.5t85 -79t32.5 -115.5t-32.5 -115.5t-85 -79t-111.5 -42.5t-119 -14zM228 289v-75h-59v-140h186q36 0 71 4.5t71.5 17t63 31.5t44 51t17.5 73t-17.5 73t-44 51t-63 31.5t-71.5 17t-71 4.5h-186v-139h59z" />
    <glyph glyph-name="Emacron" unicode="&#x112;" horiz-adv-x="695" 
d="M85 0v558h555v-75h-469v-153h395v-75h-396v-180h470v-75h-555zM210 639v54h306v-54h-306z" />
    <glyph glyph-name="emacron" unicode="&#x113;" horiz-adv-x="640" 
d="M85 0v502h500v-74h-415v-128h349v-75h-350v-151h416v-74h-500zM186 579v54h306v-54h-306z" />
    <glyph glyph-name="Ebreve" unicode="&#x114;" horiz-adv-x="695" 
d="M85 0v558h555v-75h-469v-153h395v-75h-396v-180h470v-75h-555zM475 800h43q-4 -76 -45 -125.5t-110 -49.5q-68 0 -108.5 49t-44.5 126h43q11 -41 41 -67t70 -26t70 26t41 67z" />
    <glyph glyph-name="ebreve" unicode="&#x115;" horiz-adv-x="640" 
d="M85 0v502h500v-74h-415v-128h349v-75h-350v-151h416v-74h-500zM451 740h43q-4 -76 -45 -125.5t-110 -49.5q-68 0 -108.5 49t-44.5 126h43q11 -41 41 -67t70 -26t70 26t41 67z" />
    <glyph glyph-name="Edotaccent" unicode="&#x116;" horiz-adv-x="695" 
d="M85 0v558h555v-75h-469v-153h395v-75h-396v-180h470v-75h-555zM363 743q20 0 36 -15.5t16 -36.5t-15.5 -36.5t-36.5 -15.5q-22 0 -38 15.5t-16 36.5q0 22 16 37t38 15z" />
    <glyph glyph-name="edotaccent" unicode="&#x117;" horiz-adv-x="640" 
d="M85 0v502h500v-74h-415v-128h349v-75h-350v-151h416v-74h-500zM339 683q20 0 36 -15.5t16 -36.5t-15.5 -36.5t-36.5 -15.5q-22 0 -38 15.5t-16 36.5q0 22 16 37t38 15z" />
    <glyph glyph-name="Eogonek" unicode="&#x118;" horiz-adv-x="695" 
d="M85 0v558h555v-75h-469v-153h395v-75h-396v-180h470v-75h-240q-20 -28 -20 -51q0 -21 17 -35t38 -14q27 0 64 25l25 -32q-74 -52 -121 -52q-40 0 -66.5 23t-26.5 60q0 40 29 76h-254z" />
    <glyph glyph-name="eogonek" unicode="&#x119;" horiz-adv-x="640" 
d="M85 0v502h500v-74h-415v-128h349v-75h-350v-151h416v-74h-124q-20 -28 -20 -51q0 -21 17 -35t38 -14q27 0 64 25l25 -32q-74 -52 -121 -52q-40 0 -66.5 23t-26.5 60q0 40 29 76h-315z" />
    <glyph glyph-name="Ecaron" unicode="&#x11a;" horiz-adv-x="695" 
d="M85 0v558h555v-75h-469v-153h395v-75h-396v-180h470v-75h-555zM468 824l43 -6l-124 -179h-51l-122 179l41 6l108 -101z" />
    <glyph glyph-name="ecaron" unicode="&#x11b;" horiz-adv-x="640" 
d="M85 0v502h500v-74h-415v-128h349v-75h-350v-151h416v-74h-500zM444 764l43 -6l-124 -179h-51l-122 179l41 6l108 -101z" />
    <glyph glyph-name="Gcircumflex" unicode="&#x11c;" horiz-adv-x="868" 
d="M150 279q0 -94 90 -159.5t218 -65.5q68 0 125.5 16t98.5 55.5t41 96.5h-189v75h274q0 -110 -22 -160q-34 -79 -124 -118.5t-204 -39.5q-165 0 -281.5 88t-116.5 212q0 125 116.5 213t281.5 88q151 0 265 -77v-106q-41 50 -111.5 79t-153.5 29q-128 0 -218 -66t-90 -160z
M606 637l-49 4l-104 96l-103 -96l-48 -6l128 187h49z" />
    <glyph glyph-name="gcircumflex" unicode="&#x11d;" horiz-adv-x="791" 
d="M148 252q0 -81 78.5 -138t190.5 -57q91 0 159.5 35.5t71.5 105.5h-167v74h250q0 -103 -20 -148q-32 -68 -113 -105t-181 -37q-148 0 -252.5 79t-104.5 191t104.5 191.5t252.5 79.5q133 0 239 -70v-108q-39 48 -103 75.5t-136 27.5q-112 0 -190.5 -57t-78.5 -139zM568 577
l-49 4l-104 96l-103 -96l-48 -6l128 187h49z" />
    <glyph glyph-name="Gbreve" unicode="&#x11e;" horiz-adv-x="868" 
d="M150 279q0 -94 90 -159.5t218 -65.5q68 0 125.5 16t98.5 55.5t41 96.5h-189v75h274q0 -110 -22 -160q-34 -79 -124 -118.5t-204 -39.5q-165 0 -281.5 88t-116.5 212q0 125 116.5 213t281.5 88q151 0 265 -77v-106q-41 50 -111.5 79t-153.5 29q-128 0 -218 -66t-90 -160z
M569 802h43q-4 -76 -45 -125.5t-110 -49.5q-68 0 -108.5 49t-44.5 126h43q11 -41 41 -67t70 -26t70 26t41 67z" />
    <glyph glyph-name="gbreve" unicode="&#x11f;" horiz-adv-x="791" 
d="M148 252q0 -81 78.5 -138t190.5 -57q91 0 159.5 35.5t71.5 105.5h-167v74h250q0 -103 -20 -148q-32 -68 -113 -105t-181 -37q-148 0 -252.5 79t-104.5 191t104.5 191.5t252.5 79.5q133 0 239 -70v-108q-39 48 -103 75.5t-136 27.5q-112 0 -190.5 -57t-78.5 -139zM531 742
h43q-4 -76 -45 -125.5t-110 -49.5q-68 0 -108.5 49t-44.5 126h43q11 -41 41 -67t70 -26t70 26t41 67z" />
    <glyph glyph-name="Gdotaccent" unicode="&#x120;" horiz-adv-x="868" 
d="M150 279q0 -94 90 -159.5t218 -65.5q68 0 125.5 16t98.5 55.5t41 96.5h-189v75h274q0 -110 -22 -160q-34 -79 -124 -118.5t-204 -39.5q-165 0 -281.5 88t-116.5 212q0 125 116.5 213t281.5 88q151 0 265 -77v-106q-41 50 -111.5 79t-153.5 29q-128 0 -218 -66t-90 -160z
M457 745q20 0 36 -15.5t16 -36.5t-15.5 -36.5t-36.5 -15.5q-22 0 -38 15.5t-16 36.5q0 22 16 37t38 15z" />
    <glyph glyph-name="gdotaccent" unicode="&#x121;" horiz-adv-x="791" 
d="M148 252q0 -81 78.5 -138t190.5 -57q91 0 159.5 35.5t71.5 105.5h-167v74h250q0 -103 -20 -148q-32 -68 -113 -105t-181 -37q-148 0 -252.5 79t-104.5 191t104.5 191.5t252.5 79.5q133 0 239 -70v-108q-39 48 -103 75.5t-136 27.5q-112 0 -190.5 -57t-78.5 -139zM419 685
q20 0 36 -15.5t16 -36.5t-15.5 -36.5t-36.5 -15.5q-22 0 -38 15.5t-16 36.5q0 22 16 37t38 15z" />
    <glyph glyph-name="Gcommaaccent" unicode="&#x122;" horiz-adv-x="868" 
d="M150 279q0 -94 90 -159.5t218 -65.5q68 0 125.5 16t98.5 55.5t41 96.5h-189v75h274q0 -110 -22 -160q-34 -79 -124 -118.5t-204 -39.5q-165 0 -281.5 88t-116.5 212q0 125 116.5 213t281.5 88q151 0 265 -77v-106q-41 50 -111.5 79t-153.5 29q-128 0 -218 -66t-90 -160z
M368 -283l46 171h85l-68 -171h-63z" />
    <glyph glyph-name="gcommaaccent" unicode="&#x123;" horiz-adv-x="791" 
d="M148 252q0 -81 78.5 -138t190.5 -57q91 0 159.5 35.5t71.5 105.5h-167v74h250q0 -103 -20 -148q-32 -68 -113 -105t-181 -37q-148 0 -252.5 79t-104.5 191t104.5 191.5t252.5 79.5q133 0 239 -70v-108q-39 48 -103 75.5t-136 27.5q-112 0 -190.5 -57t-78.5 -139zM417 593
l46 171h85l-68 -171h-63z" />
    <glyph glyph-name="Hcircumflex" unicode="&#x124;" horiz-adv-x="827" 
d="M657 0v263h-487v-263h-85v558h85v-220h487v220h85v-558h-85zM558 635l-49 4l-104 96l-103 -96l-48 -6l128 187h49z" />
    <glyph glyph-name="hcircumflex" unicode="&#x125;" horiz-adv-x="760" 
d="M592 0v233h-424v-233h-83v502h83v-195h424v195h83v-502h-83zM528 575l-49 4l-104 96l-103 -96l-48 -6l128 187h49z" />
    <glyph glyph-name="Hbar" unicode="&#x126;" horiz-adv-x="827" 
d="M16 410v69h69v79h85v-79h487v79h85v-79h66v-69h-66v-410h-85v263h-487v-263h-85v410h-69zM170 338h487v72h-487v-72z" />
    <glyph glyph-name="hbar" unicode="&#x127;" horiz-adv-x="760" 
d="M20 387v54h65v61h83v-61h424v61h83v-61h61v-54h-61v-387h-83v233h-424v-233h-83v387h-65zM168 307h424v80h-424v-80z" />
    <glyph glyph-name="Itilde" unicode="&#x128;" horiz-adv-x="285" 
d="M185 0h-85v558h85v-558zM224 705q11 0 24 16t17 32h37q-3 -45 -29.5 -78.5t-65.5 -33.5q-38 0 -80.5 23.5t-63.5 23.5q-13 0 -23.5 -14.5t-13.5 -32.5h-37q1 44 29 78t70 34q23 0 71 -24t65 -24z" />
    <glyph glyph-name="itilde" unicode="&#x129;" horiz-adv-x="282" 
d="M182 0h-82v502h82v-502zM224 645q11 0 24 16t17 32h37q-3 -45 -29.5 -78.5t-65.5 -33.5q-38 0 -80.5 23.5t-63.5 23.5q-13 0 -23.5 -14.5t-13.5 -32.5h-37q1 44 29 78t70 34q23 0 71 -24t65 -24z" />
    <glyph glyph-name="imacron" unicode="&#x12b;" horiz-adv-x="282" 
d="M182 0h-82v502h82v-502zM-12 581v54h306v-54h-306z" />
    <glyph glyph-name="Ibreve" unicode="&#x12c;" horiz-adv-x="285" 
d="M185 0h-85v558h85v-558zM253 802h43q-4 -76 -45 -125.5t-110 -49.5q-68 0 -108.5 49t-44.5 126h43q11 -41 41 -67t70 -26t70 26t41 67z" />
    <glyph glyph-name="Iogonek" unicode="&#x12e;" horiz-adv-x="285" 
d="M257 -75l25 -32q-74 -52 -121 -52q-40 0 -66.5 23t-26.5 60q0 40 32 79v555h85v-558h-27q-20 -28 -20 -51q0 -21 17 -35t38 -14q27 0 64 25z" />
    <glyph glyph-name="iogonek" unicode="&#x12f;" horiz-adv-x="282" 
d="M253 -75l25 -32q-74 -52 -121 -52q-40 0 -66.5 23t-26.5 60q0 43 36 83v495h82v-502h-28q-20 -28 -20 -51q0 -21 17 -35t38 -14q27 0 64 25z" />
    <glyph glyph-name="Idotaccent" unicode="&#x130;" horiz-adv-x="285" 
d="M185 0h-85v558h85v-558zM141 745q20 0 36 -15.5t16 -36.5t-15.5 -36.5t-36.5 -15.5q-22 0 -38 15.5t-16 36.5q0 22 16 37t38 15z" />
    <glyph glyph-name="dotlessi" unicode="&#x131;" horiz-adv-x="282" 
d="M182 0h-82v502h82v-502z" />
    <glyph glyph-name="IJ" unicode="&#x132;" horiz-adv-x="542" 
d="M185 0h-85v558h85v-558zM205 -111q27 -9 58 -9q68 0 88.5 27.5t20.5 85.5v565h85v-520q0 -111 -16 -147q-36 -83 -165 -83q-33 0 -71 8v73z" />
    <glyph glyph-name="ij" unicode="&#x133;" horiz-adv-x="518" 
d="M182 0h-82v502h82v-502zM202 -94l4 3q28 -7 51 -7q57 0 74.5 23t17.5 73v504h84v-465q0 -98 -15 -131q-36 -76 -150 -76q-28 0 -66 8v68z" />
    <glyph glyph-name="Jcircumflex" unicode="&#x134;" horiz-adv-x="379" 
d="M11 -111q27 -9 58 -9q68 0 88.5 27.5t20.5 85.5v565h85v-520q0 -111 -16 -147q-36 -83 -165 -83q-33 0 -71 8v73zM371 637l-49 4l-104 96l-103 -96l-48 -6l128 187h49z" />
    <glyph glyph-name="jcircumflex" unicode="&#x135;" horiz-adv-x="236" 
d="M-80 -94l4 3q28 -7 51 -7q57 0 74.5 23t17.5 73v504h84v-465q0 -98 -15 -131q-36 -76 -150 -76q-28 0 -66 8v68zM257 582l-49 4l-104 96l-103 -96l-48 -6l128 187h49z" />
    <glyph glyph-name="Kcommaaccent" unicode="&#x136;" horiz-adv-x="720" 
d="M175 185v-185h-85v558h85v-281l325 281h111l-210 -184l304 -374h-102l-272 317zM294 -283l46 171h85l-68 -171h-63z" />
    <glyph glyph-name="kcommaaccent" unicode="&#x137;" horiz-adv-x="663" 
d="M172 165v-165h-82v502h82v-244l283 244h111l-191 -167l274 -335h-103l-240 279zM266 -283l46 171h85l-68 -171h-63z" />
    <glyph glyph-name="Lacute" unicode="&#x139;" horiz-adv-x="639" 
d="M170 558v-483h459v-75h-544v558h85zM256 832l64 -42l-167 -149h-52z" />
    <glyph glyph-name="lacute" unicode="&#x13a;" horiz-adv-x="586" 
d="M169 502v-428h407v-74h-491v502h84zM255 772l64 -42l-167 -149h-52z" />
    <glyph glyph-name="Lcommaaccent" unicode="&#x13b;" horiz-adv-x="639" 
d="M170 558v-483h459v-75h-544v558h85zM254 -283l46 171h85l-68 -171h-63z" />
    <glyph glyph-name="lcommaaccent" unicode="&#x13c;" horiz-adv-x="586" 
d="M169 502v-428h407v-74h-491v502h84zM227 -283l46 171h85l-68 -171h-63z" />
    <glyph glyph-name="Lcaron" unicode="&#x13d;" horiz-adv-x="639" 
d="M170 558v-483h459v-75h-544v558h85zM234 825l43 -6l-124 -179h-51l-122 179l41 6l108 -101z" />
    <glyph glyph-name="lcaron" unicode="&#x13e;" horiz-adv-x="589" 
d="M169 502v-428h407v-74h-491v502h84zM374 391l46 171h85l-68 -171h-63z" />
    <glyph glyph-name="Ldot" unicode="&#x13f;" horiz-adv-x="639" 
d="M170 558v-483h459v-75h-544v558h85zM319 305q21 0 37 -15.5t16 -36.5q0 -22 -16 -37.5t-37 -15.5q-22 0 -37.5 15.5t-15.5 36.5q0 22 15.5 37.5t37.5 15.5z" />
    <glyph glyph-name="ldot" unicode="&#x140;" horiz-adv-x="604" 
d="M169 502v-428h407v-74h-491v502h84zM498 305q21 0 37 -15.5t16 -36.5q0 -22 -16 -37.5t-37 -15.5q-22 0 -37.5 15.5t-15.5 36.5q0 22 15.5 37.5t37.5 15.5z" />
    <glyph glyph-name="Lslash" unicode="&#x141;" horiz-adv-x="639" 
d="M170 558v-188l96 96l54 -53l-150 -150v-188h459v-75h-544v178l-92 -92l-53 54l145 145v273h85z" />
    <glyph glyph-name="lslash" unicode="&#x142;" horiz-adv-x="586" 
d="M169 502v-145l96 96l53 -53l-149 -149v-177h407v-74h-491v167l-94 -93l-53 53l147 146v229h84z" />
    <glyph glyph-name="Nacute" unicode="&#x143;" horiz-adv-x="833" 
d="M175 0h-85v590l570 -446v414h85v-587l-570 439v-410zM545 830l64 -42l-167 -149h-52z" />
    <glyph glyph-name="nacute" unicode="&#x144;" horiz-adv-x="765" 
d="M172 0h-82v524l505 -380v358h82v-522l-505 382v-362zM518 772l64 -42l-167 -149h-52z" />
    <glyph glyph-name="Ncommaaccent" unicode="&#x145;" horiz-adv-x="833" 
d="M175 0h-85v590l570 -446v414h85v-587l-570 439v-410zM351 -283l46 171h85l-68 -171h-63z" />
    <glyph glyph-name="ncommaaccent" unicode="&#x146;" horiz-adv-x="765" 
d="M172 0h-82v524l505 -380v358h82v-522l-505 382v-362zM317 -283l46 171h85l-68 -171h-63z" />
    <glyph glyph-name="Ncaron" unicode="&#x147;" horiz-adv-x="833" 
d="M175 0h-85v590l570 -446v414h85v-587l-570 439v-410zM522 824l43 -6l-124 -179h-51l-122 179l41 6l108 -101z" />
    <glyph glyph-name="ncaron" unicode="&#x148;" horiz-adv-x="765" 
d="M172 0h-82v524l505 -380v358h82v-522l-505 382v-362zM495 766l43 -6l-124 -179h-51l-122 179l41 6l108 -101z" />
    <glyph glyph-name="napostrophe" unicode="&#x149;" horiz-adv-x="765" 
d="M172 0h-82v524l505 -380v358h82v-522l-505 382v-362zM90 -226l46 171h85l-68 -171h-63z" />
    <glyph glyph-name="Omacron" unicode="&#x14c;" horiz-adv-x="916" 
d="M60 279q0 125 116.5 213t281.5 88t281.5 -88t116.5 -213q0 -124 -116.5 -212t-281.5 -88t-281.5 88t-116.5 212zM150 279q0 -94 90 -159.5t218 -65.5t218 65.5t90 159.5t-90 160t-218 66t-218 -66t-90 -160zM306 641v54h306v-54h-306z" />
    <glyph glyph-name="omacron" unicode="&#x14d;" horiz-adv-x="833" 
d="M60 250q0 112 104.5 191.5t252.5 79.5t252 -79.5t104 -191.5t-104 -191t-252 -79t-252.5 79t-104.5 191zM148 250q0 -81 78.5 -138t190.5 -57q111 0 189.5 57t78.5 138q0 82 -78.5 139t-189.5 57q-112 0 -190.5 -57t-78.5 -139zM268 581v54h306v-54h-306z" />
    <glyph glyph-name="Obreve" unicode="&#x14e;" horiz-adv-x="916" 
d="M60 279q0 125 116.5 213t281.5 88t281.5 -88t116.5 -213q0 -124 -116.5 -212t-281.5 -88t-281.5 88t-116.5 212zM150 279q0 -94 90 -159.5t218 -65.5t218 65.5t90 159.5t-90 160t-218 66t-218 -66t-90 -160zM571 802h43q-4 -76 -45 -125.5t-110 -49.5q-68 0 -108.5 49
t-44.5 126h43q11 -41 41 -67t70 -26t70 26t41 67z" />
    <glyph glyph-name="obreve" unicode="&#x14f;" horiz-adv-x="833" 
d="M60 250q0 112 104.5 191.5t252.5 79.5t252 -79.5t104 -191.5t-104 -191t-252 -79t-252.5 79t-104.5 191zM148 250q0 -81 78.5 -138t190.5 -57q111 0 189.5 57t78.5 138q0 82 -78.5 139t-189.5 57q-112 0 -190.5 -57t-78.5 -139zM533 742h43q-4 -76 -45 -125.5t-110 -49.5
q-68 0 -108.5 49t-44.5 126h43q11 -41 41 -67t70 -26t70 26t41 67z" />
    <glyph glyph-name="Ohungarumlaut" unicode="&#x150;" horiz-adv-x="916" 
d="M60 279q0 125 116.5 213t281.5 88t281.5 -88t116.5 -213q0 -124 -116.5 -212t-281.5 -88t-281.5 88t-116.5 212zM150 279q0 -94 90 -159.5t218 -65.5t218 65.5t90 159.5t-90 160t-218 66t-218 -66t-90 -160zM595 800l-177 -159h-79l165 185zM749 800l-177 -159h-79
l165 185z" />
    <glyph glyph-name="ohungarumlaut" unicode="&#x151;" horiz-adv-x="833" 
d="M60 250q0 112 104.5 191.5t252.5 79.5t252 -79.5t104 -191.5t-104 -191t-252 -79t-252.5 79t-104.5 191zM148 250q0 -81 78.5 -138t190.5 -57q111 0 189.5 57t78.5 138q0 82 -78.5 139t-189.5 57q-112 0 -190.5 -57t-78.5 -139zM557 740l-177 -159h-79l165 185zM711 740
l-177 -159h-79l165 185z" />
    <glyph glyph-name="OE" unicode="&#x152;" horiz-adv-x="1202" 
d="M458 580q76 0 148 -22h541v-75h-469v-153h395v-75h-396v-180h470v-75h-544q-73 -21 -145 -21q-165 0 -281.5 88t-116.5 212q0 125 116.5 213t281.5 88zM145 279q0 -94 91.5 -160.5t221.5 -66.5q72 0 134 21v412q-64 22 -134 22q-130 0 -221.5 -66.5t-91.5 -161.5z" />
    <glyph glyph-name="oe" unicode="&#x153;" horiz-adv-x="1062" 
d="M401 520q62 0 126 -18h480v-74h-416v-128h351v-75h-352v-151h417v-74h-475q-65 -19 -131 -19q-148 0 -252 79t-104 190q0 112 104 191t252 79zM130 250q0 -80 79.5 -137t191.5 -57q57 0 107 15v358q-51 17 -107 17q-112 0 -191.5 -57.5t-79.5 -138.5z" />
    <glyph glyph-name="Racute" unicode="&#x154;" horiz-adv-x="754" 
d="M185 250v-250h-85v558h342q88 0 152 -37t64 -117q0 -62 -39 -98t-101 -49l166 -257h-100l-158 250h-241zM185 483v-158h247q72 0 104 19.5t32 59.5t-32 59.5t-104 19.5h-247zM500 830l64 -42l-167 -149h-52z" />
    <glyph glyph-name="racute" unicode="&#x155;" horiz-adv-x="699" 
d="M183 221v-221h-83v502h308q50 0 91.5 -12t72 -45t30.5 -83q0 -104 -122 -134l149 -228h-97l-141 221h-208zM183 428v-133h216q116 0 116 67q0 66 -116 66h-216zM472 772l64 -42l-167 -149h-52z" />
    <glyph glyph-name="Rcommaaccent" unicode="&#x156;" horiz-adv-x="754" 
d="M185 250v-250h-85v558h342q88 0 152 -37t64 -117q0 -62 -39 -98t-101 -49l166 -257h-100l-158 250h-241zM185 483v-158h247q72 0 104 19.5t32 59.5t-32 59.5t-104 19.5h-247zM311 -283l46 171h85l-68 -171h-63z" />
    <glyph glyph-name="rcommaaccent" unicode="&#x157;" horiz-adv-x="699" 
d="M183 221v-221h-83v502h308q50 0 91.5 -12t72 -45t30.5 -83q0 -104 -122 -134l149 -228h-97l-141 221h-208zM183 428v-133h216q116 0 116 67q0 66 -116 66h-216zM284 -283l46 171h85l-68 -171h-63z" />
    <glyph glyph-name="Rcaron" unicode="&#x158;" horiz-adv-x="754" 
d="M185 250v-250h-85v558h342q88 0 152 -37t64 -117q0 -62 -39 -98t-101 -49l166 -257h-100l-158 250h-241zM185 483v-158h247q72 0 104 19.5t32 59.5t-32 59.5t-104 19.5h-247zM477 824l43 -6l-124 -179h-51l-122 179l41 6l108 -101z" />
    <glyph glyph-name="rcaron" unicode="&#x159;" horiz-adv-x="699" 
d="M183 221v-221h-83v502h308q50 0 91.5 -12t72 -45t30.5 -83q0 -104 -122 -134l149 -228h-97l-141 221h-208zM183 428v-133h216q116 0 116 67q0 66 -116 66h-216zM449 766l43 -6l-124 -179h-51l-122 179l41 6l108 -101z" />
    <glyph glyph-name="Sacute" unicode="&#x15a;" horiz-adv-x="674" 
d="M627 153q0 -60 -44.5 -101t-108 -57t-142.5 -16q-81 0 -155.5 17t-115.5 45v97q38 -33 116.5 -58.5t156.5 -25.5q89 0 146 28t57 64q0 33 -36.5 53.5t-90.5 28t-118 20t-118 27.5t-90.5 51.5t-36.5 91.5q0 52 42.5 89t103 52.5t130.5 15.5q76 0 143 -14t102 -40v-90
q-98 69 -255 69q-24 0 -51 -4t-56 -12.5t-48 -26t-19 -40.5q0 -34 36 -55.5t90.5 -30t117.5 -20.5t117.5 -25.5t90.5 -47.5t36 -85zM461 832l64 -42l-167 -149h-52z" />
    <glyph glyph-name="sacute" unicode="&#x15b;" horiz-adv-x="615" 
d="M568 140q0 -55 -39.5 -92t-97 -52t-127.5 -15q-72 0 -139 15.5t-105 41.5v97q36 -32 106 -55.5t140 -23.5q77 0 126 23t49 54q0 17 -14 30.5t-42.5 23t-53 14.5t-64.5 12q-32 5 -53 8.5t-50.5 10.5t-49.5 14.5t-42 20t-35 27t-21.5 35t-8.5 45.5q0 36 22 64.5t58.5 45
t79.5 25t89 8.5q67 0 128 -13t92 -36v-89q-92 64 -229 64q-30 0 -61.5 -5.5t-60.5 -22t-29 -42.5q0 -13 6.5 -24t21.5 -19.5t28.5 -14t39 -11t41 -8.5t45.5 -8q37 -6 60 -10t56.5 -12t53.5 -18.5t40.5 -25.5t30 -35.5t9.5 -46.5zM435 772l64 -42l-167 -149h-52z" />
    <glyph glyph-name="Scircumflex" unicode="&#x15c;" horiz-adv-x="674" 
d="M627 153q0 -60 -44.5 -101t-108 -57t-142.5 -16q-81 0 -155.5 17t-115.5 45v97q38 -33 116.5 -58.5t156.5 -25.5q89 0 146 28t57 64q0 33 -36.5 53.5t-90.5 28t-118 20t-118 27.5t-90.5 51.5t-36.5 91.5q0 52 42.5 89t103 52.5t130.5 15.5q76 0 143 -14t102 -40v-90
q-98 69 -255 69q-24 0 -51 -4t-56 -12.5t-48 -26t-19 -40.5q0 -34 36 -55.5t90.5 -30t117.5 -20.5t117.5 -25.5t90.5 -47.5t36 -85zM482 637l-49 4l-104 96l-103 -96l-48 -6l128 187h49z" />
    <glyph glyph-name="scircumflex" unicode="&#x15d;" horiz-adv-x="615" 
d="M568 140q0 -55 -39.5 -92t-97 -52t-127.5 -15q-72 0 -139 15.5t-105 41.5v97q36 -32 106 -55.5t140 -23.5q77 0 126 23t49 54q0 17 -14 30.5t-42.5 23t-53 14.5t-64.5 12q-32 5 -53 8.5t-50.5 10.5t-49.5 14.5t-42 20t-35 27t-21.5 35t-8.5 45.5q0 36 22 64.5t58.5 45
t79.5 25t89 8.5q67 0 128 -13t92 -36v-89q-92 64 -229 64q-30 0 -61.5 -5.5t-60.5 -22t-29 -42.5q0 -13 6.5 -24t21.5 -19.5t28.5 -14t39 -11t41 -8.5t45.5 -8q37 -6 60 -10t56.5 -12t53.5 -18.5t40.5 -25.5t30 -35.5t9.5 -46.5zM456 577l-49 4l-104 96l-103 -96l-48 -6
l128 187h49z" />
    <glyph glyph-name="Scedilla" unicode="&#x15e;" horiz-adv-x="674" 
d="M437 -111q0 -43 -35.5 -71t-81.5 -28q-48 0 -83 26l17 38q47 -13 54 -13q50 0 50 39q0 30 -51 30q-7 0 -17 -0.5t-14 -0.5l35 70q-76 2 -144 18.5t-106 43.5v97q38 -33 116.5 -58.5t156.5 -25.5q89 0 146 28t57 64q0 33 -36.5 53.5t-90.5 28t-118 20t-118 27.5
t-90.5 51.5t-36.5 91.5q0 52 42.5 89t103 52.5t130.5 15.5q76 0 143 -14t102 -40v-90q-98 69 -255 69q-24 0 -51 -4t-56 -12.5t-48 -26t-19 -40.5q0 -34 36 -55.5t90.5 -30t117.5 -20.5t117.5 -25.5t90.5 -47.5t36 -85q0 -83 -76.5 -125.5t-191.5 -47.5l-6 -14q36 -2 60 -22
t24 -55z" />
    <glyph glyph-name="scedilla" unicode="&#x15f;" horiz-adv-x="615" 
d="M407 -111q0 -43 -35.5 -71t-81.5 -28q-48 0 -83 26l17 38q47 -13 54 -13q50 0 50 39q0 30 -51 30q-7 0 -17 -0.5t-14 -0.5l36 73q-149 5 -222 56v97q36 -32 106 -55.5t140 -23.5q77 0 126 23t49 54q0 17 -14 30.5t-42.5 23t-53 14.5t-64.5 12q-32 5 -53 8.5t-50.5 10.5
t-49.5 14.5t-42 20t-35 27t-21.5 35t-8.5 45.5q0 36 22 64.5t58.5 45t79.5 25t89 8.5q67 0 128 -13t92 -36v-89q-92 64 -229 64q-30 0 -61.5 -5.5t-60.5 -22t-29 -42.5q0 -13 6.5 -24t21.5 -19.5t28.5 -14t39 -11t41 -8.5t45.5 -8q37 -6 60 -10t56.5 -12t53.5 -18.5
t40.5 -25.5t30 -35.5t9.5 -46.5q0 -76 -68 -115t-170 -43l-7 -16q36 -2 60 -22t24 -55z" />
    <glyph glyph-name="Scaron" unicode="&#x160;" horiz-adv-x="674" 
d="M627 153q0 -60 -44.5 -101t-108 -57t-142.5 -16q-81 0 -155.5 17t-115.5 45v97q38 -33 116.5 -58.5t156.5 -25.5q89 0 146 28t57 64q0 33 -36.5 53.5t-90.5 28t-118 20t-118 27.5t-90.5 51.5t-36.5 91.5q0 52 42.5 89t103 52.5t130.5 15.5q76 0 143 -14t102 -40v-90
q-98 69 -255 69q-24 0 -51 -4t-56 -12.5t-48 -26t-19 -40.5q0 -34 36 -55.5t90.5 -30t117.5 -20.5t117.5 -25.5t90.5 -47.5t36 -85zM438 826l43 -6l-124 -179h-51l-122 179l41 6l108 -101z" />
    <glyph glyph-name="scaron" unicode="&#x161;" horiz-adv-x="615" 
d="M568 140q0 -55 -39.5 -92t-97 -52t-127.5 -15q-72 0 -139 15.5t-105 41.5v97q36 -32 106 -55.5t140 -23.5q77 0 126 23t49 54q0 17 -14 30.5t-42.5 23t-53 14.5t-64.5 12q-32 5 -53 8.5t-50.5 10.5t-49.5 14.5t-42 20t-35 27t-21.5 35t-8.5 45.5q0 36 22 64.5t58.5 45
t79.5 25t89 8.5q67 0 128 -13t92 -36v-89q-92 64 -229 64q-30 0 -61.5 -5.5t-60.5 -22t-29 -42.5q0 -13 6.5 -24t21.5 -19.5t28.5 -14t39 -11t41 -8.5t45.5 -8q37 -6 60 -10t56.5 -12t53.5 -18.5t40.5 -25.5t30 -35.5t9.5 -46.5zM412 766l43 -6l-124 -179h-51l-122 179l41 6
l108 -101z" />
    <glyph glyph-name="Tcommaaccent" unicode="&#x162;" horiz-adv-x="674" 
d="M295 483h-285v75h654v-75h-284v-483h-85v483zM251 -294l46 171h85l-68 -171h-63z" />
    <glyph glyph-name="Tcaron" unicode="&#x164;" horiz-adv-x="674" 
d="M295 483h-285v75h654v-75h-284v-483h-85v483zM442 826l43 -6l-124 -179h-51l-122 179l41 6l108 -101z" />
    <glyph glyph-name="Tbar" unicode="&#x166;" horiz-adv-x="674" 
d="M184 321v54h111v108h-285v75h654v-75h-284v-108h110v-54h-110v-321h-85v321h-111z" />
    <glyph glyph-name="Utilde" unicode="&#x168;" horiz-adv-x="772" 
d="M607 269v289h85v-303q0 -134 -90 -205t-216 -71t-216 71t-90 205v303h85v-289q0 -104 65.5 -159.5t155.5 -55.5t155.5 55.5t65.5 159.5zM468 705q11 0 24 16t17 32h37q-3 -45 -29.5 -78.5t-65.5 -33.5q-38 0 -80.5 23.5t-63.5 23.5q-13 0 -23.5 -14.5t-13.5 -32.5h-37
q1 44 29 78t70 34q23 0 71 -24t65 -24z" />
    <glyph glyph-name="utilde" unicode="&#x169;" 
d="M546 242v260h84v-273q0 -120 -81.5 -184t-194.5 -64t-193.5 64t-80.5 184v273h82v-260q0 -89 57 -137.5t135 -48.5q79 0 135.5 48t56.5 138zM439 645q11 0 24 16t17 32h37q-3 -45 -29.5 -78.5t-65.5 -33.5q-38 0 -80.5 23.5t-63.5 23.5q-13 0 -23.5 -14.5t-13.5 -32.5
h-37q1 44 28.5 78t70.5 34q23 0 71 -24t65 -24z" />
    <glyph glyph-name="Umacron" unicode="&#x16a;" horiz-adv-x="772" 
d="M607 269v289h85v-303q0 -134 -90 -205t-216 -71t-216 71t-90 205v303h85v-289q0 -104 65.5 -159.5t155.5 -55.5t155.5 55.5t65.5 159.5zM232 641v54h306v-54h-306z" />
    <glyph glyph-name="umacron" unicode="&#x16b;" 
d="M546 242v260h84v-273q0 -120 -81.5 -184t-194.5 -64t-193.5 64t-80.5 184v273h82v-260q0 -89 57 -137.5t135 -48.5q79 0 135.5 48t56.5 138zM203 581v54h306v-54h-306z" />
    <glyph glyph-name="Ubreve" unicode="&#x16c;" horiz-adv-x="772" 
d="M607 269v289h85v-303q0 -134 -90 -205t-216 -71t-216 71t-90 205v303h85v-289q0 -104 65.5 -159.5t155.5 -55.5t155.5 55.5t65.5 159.5zM497 802h43q-4 -76 -45 -125.5t-110 -49.5q-68 0 -108.5 49t-44.5 126h43q11 -41 41 -67t70 -26t70 26t41 67z" />
    <glyph glyph-name="ubreve" unicode="&#x16d;" 
d="M546 242v260h84v-273q0 -120 -81.5 -184t-194.5 -64t-193.5 64t-80.5 184v273h82v-260q0 -89 57 -137.5t135 -48.5q79 0 135.5 48t56.5 138zM468 742h43q-4 -76 -45 -125.5t-110 -49.5q-68 0 -108.5 49t-44.5 126h43q11 -41 41 -67t70 -26t70 26t41 67z" />
    <glyph glyph-name="Uring" unicode="&#x16e;" horiz-adv-x="772" 
d="M607 269v289h85v-303q0 -134 -90 -205t-216 -71t-216 71t-90 205v303h85v-289q0 -104 65.5 -159.5t155.5 -55.5t155.5 55.5t65.5 159.5zM482 724q0 -42 -28.5 -70.5t-68.5 -28.5t-69 28.5t-29 69.5q0 39 29 68t69 29q39 0 68 -29t29 -67zM435 724q0 19 -15.5 34t-34.5 15
q-20 0 -35 -14.5t-15 -34.5q0 -22 15 -37t35 -15q21 0 35.5 15.5t14.5 36.5z" />
    <glyph glyph-name="uring" unicode="&#x16f;" 
d="M546 242v260h84v-273q0 -120 -81.5 -184t-194.5 -64t-193.5 64t-80.5 184v273h82v-260q0 -89 57 -137.5t135 -48.5q79 0 135.5 48t56.5 138zM453 664q0 -42 -28.5 -70.5t-68.5 -28.5t-69 28.5t-29 69.5q0 39 29 68t69 29t68.5 -29t28.5 -67zM406 664q0 19 -15.5 34
t-34.5 15q-20 0 -35 -14.5t-15 -34.5q0 -22 15 -37t35 -15q21 0 35.5 15.5t14.5 36.5z" />
    <glyph glyph-name="Uhungarumlaut" unicode="&#x170;" horiz-adv-x="772" 
d="M607 269v289h85v-303q0 -134 -90 -205t-216 -71t-216 71t-90 205v303h85v-289q0 -104 65.5 -159.5t155.5 -55.5t155.5 55.5t65.5 159.5zM521 800l-177 -159h-79l165 185zM675 800l-177 -159h-79l165 185z" />
    <glyph glyph-name="uhungarumlaut" unicode="&#x171;" 
d="M546 242v260h84v-273q0 -120 -81.5 -184t-194.5 -64t-193.5 64t-80.5 184v273h82v-260q0 -89 57 -137.5t135 -48.5q79 0 135.5 48t56.5 138zM492 740l-177 -159h-79l165 185zM646 740l-177 -159h-79l165 185z" />
    <glyph glyph-name="Uogonek" unicode="&#x172;" horiz-adv-x="772" 
d="M520 -102l25 -32q-74 -52 -121 -52q-40 0 -66.5 23t-26.5 60q0 43 35 83q-120 6 -203 76t-83 199v303h85v-289q0 -104 65.5 -159.5t155.5 -55.5t155.5 55.5t65.5 159.5v289h85v-303q0 -123 -76 -193t-189 -81q-26 -35 -26 -59q0 -21 17 -35t38 -14q27 0 64 25z" />
    <glyph glyph-name="uogonek" unicode="&#x173;" 
d="M483 -75l25 -32q-74 -52 -121 -52q-40 0 -66.5 23t-26.5 60q0 31 18 60q-100 11 -166 73.5t-66 171.5v273h82v-260q0 -89 57 -137.5t135 -48.5q79 0 135.5 48t56.5 138v260h84v-273q0 -115 -74.5 -178t-182.5 -69q-9 -16 -9 -33q0 -21 17 -35t38 -14q27 0 64 25z" />
    <glyph glyph-name="Wcircumflex" unicode="&#x174;" horiz-adv-x="1062" 
d="M531 590l208 -432l210 400h93l-303 -587l-208 425l-208 -425l-303 587h93l210 -400zM680 637l-49 4l-104 96l-103 -96l-48 -6l128 187h49z" />
    <glyph glyph-name="wcircumflex" unicode="&#x175;" horiz-adv-x="959" 
d="M479 526l184 -364l183 340h93l-276 -523l-184 368l-184 -368l-275 523h92l183 -340zM632 577l-49 4l-104 96l-103 -96l-48 -6l128 187h49z" />
    <glyph glyph-name="Ycircumflex" unicode="&#x176;" horiz-adv-x="753" 
d="M132 558l244 -236l245 236h122l-324 -314v-244h-85v244l-324 314h122zM526 637l-49 4l-104 96l-103 -96l-48 -6l128 187h49z" />
    <glyph glyph-name="ycircumflex" unicode="&#x177;" horiz-adv-x="689" 
d="M130 502l213 -207l216 207h120l-293 -283v-219h-83v219l-293 283h120zM496 577l-49 4l-104 96l-103 -96l-48 -6l128 187h49z" />
    <glyph glyph-name="Ydieresis" unicode="&#x178;" horiz-adv-x="753" 
d="M132 558l244 -236l245 236h122l-324 -314v-244h-85v244l-324 314h122zM466 749q23 0 39.5 -16t16.5 -39q0 -21 -16.5 -37t-38.5 -16t-38 16t-16 37q0 22 16 38.5t37 16.5zM286 749q22 0 38.5 -16t16.5 -39q0 -21 -16 -37t-39 -16q-22 0 -38 16t-16 37q0 22 16.5 38.5
t37.5 16.5z" />
    <glyph glyph-name="Zacute" unicode="&#x179;" horiz-adv-x="727" 
d="M81 558h616l-473 -483h470v-75h-664l475 483h-424v75zM516 832l64 -42l-167 -149h-52z" />
    <glyph glyph-name="zacute" unicode="&#x17a;" horiz-adv-x="671" 
d="M81 502h560l-419 -428h411v-74h-603l421 428h-370v74zM488 772l64 -42l-167 -149h-52z" />
    <glyph glyph-name="Zdotaccent" unicode="&#x17b;" horiz-adv-x="727" 
d="M81 558h616l-473 -483h470v-75h-664l475 483h-424v75zM388 745q20 0 36 -15.5t16 -36.5t-15.5 -36.5t-36.5 -15.5q-22 0 -38 15.5t-16 36.5q0 22 16 37t38 15z" />
    <glyph glyph-name="zdotaccent" unicode="&#x17c;" horiz-adv-x="671" 
d="M81 502h560l-419 -428h411v-74h-603l421 428h-370v74zM360 685q20 0 36 -15.5t16 -36.5t-15.5 -36.5t-36.5 -15.5q-22 0 -38 15.5t-16 36.5q0 22 16 37t38 15z" />
    <glyph glyph-name="Zcaron" unicode="&#x17d;" horiz-adv-x="727" 
d="M81 558h616l-473 -483h470v-75h-664l475 483h-424v75zM493 826l43 -6l-124 -179h-51l-122 179l41 6l108 -101z" />
    <glyph glyph-name="zcaron" unicode="&#x17e;" horiz-adv-x="671" 
d="M81 502h560l-419 -428h411v-74h-603l421 428h-370v74zM465 766l43 -6l-124 -179h-51l-122 179l41 6l108 -101z" />
    <glyph glyph-name="florin" unicode="&#x192;" horiz-adv-x="632" 
d="M522 687q30 0 54 -13.5t24 -40.5q0 -14 -8.5 -23t-21.5 -9q-12 0 -20.5 9t-13 19.5t-15 19.5t-25.5 9q-14 0 -26.5 -6t-23 -18.5t-19 -25.5t-16.5 -32.5t-14 -34.5t-11.5 -36.5t-8.5 -33t-7 -29.5t-5 -21h78l-10 -32h-75q-1 0 -18 -83t-44.5 -197.5t-52.5 -174.5
q-29 -70 -78.5 -117t-117.5 -47q-11 0 -25 2.5t-30 13t-16 26.5q0 8 6 15.5t14 7.5q11 0 31.5 -12t22.5 -13q16 -6 31 -6q20 0 36.5 11.5t29 35t18.5 39t15 41.5q21 65 39 141.5t37.5 171t31.5 145.5h-82l9 32h81q18 78 47 133.5t62 82.5t61.5 38.5t55.5 11.5z" />
    <glyph glyph-name="Ocaron" unicode="&#x1d1;" horiz-adv-x="910" 
d="M50 279q0 125 116.5 213t281.5 88t281.5 -88t116.5 -213q0 -124 -116.5 -212t-281.5 -88t-281.5 88t-116.5 212zM140 279q0 -94 90 -159.5t218 -65.5t218 65.5t90 159.5t-90 160t-218 66t-218 -66t-90 -160zM556 826l43 -6l-124 -179h-51l-122 179l41 6l108 -101z" />
    <glyph glyph-name="AEacute" unicode="&#x1fc;" horiz-adv-x="909" 
d="M370 0v184h-156l-121 -188h-101l362 562h461v-75h-359v-153h285v-75h-286v-180h360v-75h-445zM370 426l-108 -167h108v167zM521 781l64 -42l-167 -149h-52z" />
    <glyph glyph-name="aeacute" unicode="&#x1fd;" horiz-adv-x="792" 
d="M355 0v163h-140l-105 -163h-98l343 502h382v-74h-299v-128h234v-75h-235v-151h300v-74h-382zM355 376l-93 -139h93v139zM534 773l64 -42l-167 -149h-52z" />
    <glyph glyph-name="Oslashacute" unicode="&#x1fe;" horiz-adv-x="916" 
d="M617 660l-33 -96q120 -30 196 -108.5t76 -176.5q0 -124 -116.5 -212t-281.5 -88q-33 0 -71 5l-24 -70h-77l29 85q-113 33 -184 109t-71 171q0 125 116.5 213t281.5 88q26 0 53 -3l28 83h78zM766 279q0 73 -57.5 131t-148.5 82l-149 -436q30 -2 47 -2q128 0 218 65.5
t90 159.5zM150 279q0 -70 52.5 -126.5t136.5 -81.5l147 433q-5 0 -14.5 0.5t-13.5 0.5q-128 0 -218 -66t-90 -160zM587 832l64 -42l-167 -149h-52z" />
    <glyph glyph-name="oslashacute" unicode="&#x1ff;" horiz-adv-x="833" 
d="M60 250q0 112 104.5 191.5t252.5 79.5q49 0 98 -11l61 92l76 -21l-63 -94q84 -36 134 -99t50 -138q0 -112 -104 -191t-252 -79q-80 0 -150 25l-53 -79l-75 20l60 90q-65 37 -102 93.5t-37 120.5zM685 250q0 55 -38 101t-101 71l-235 -351q51 -16 106 -16q111 0 189.5 57
t78.5 138zM148 250q0 -91 94 -149l227 341q-34 4 -52 4q-112 0 -190.5 -57t-78.5 -139zM549 772l64 -42l-167 -149h-52z" />
    <glyph glyph-name="Scommaaccent" unicode="&#x218;" horiz-adv-x="674" 
d="M627 153q0 -60 -44.5 -101t-108 -57t-142.5 -16q-81 0 -155.5 17t-115.5 45v97q38 -33 116.5 -58.5t156.5 -25.5q89 0 146 28t57 64q0 33 -36.5 53.5t-90.5 28t-118 20t-118 27.5t-90.5 51.5t-36.5 91.5q0 52 42.5 89t103 52.5t130.5 15.5q76 0 143 -14t102 -40v-90
q-98 69 -255 69q-24 0 -51 -4t-56 -12.5t-48 -26t-19 -40.5q0 -34 36 -55.5t90.5 -30t117.5 -20.5t117.5 -25.5t90.5 -47.5t36 -85z" />
    <glyph glyph-name="scommaaccent" unicode="&#x219;" horiz-adv-x="615" 
d="M568 140q0 -55 -39.5 -92t-97 -52t-127.5 -15q-72 0 -139 15.5t-105 41.5v97q36 -32 106 -55.5t140 -23.5q77 0 126 23t49 54q0 17 -14 30.5t-42.5 23t-53 14.5t-64.5 12q-32 5 -53 8.5t-50.5 10.5t-49.5 14.5t-42 20t-35 27t-21.5 35t-8.5 45.5q0 36 22 64.5t58.5 45
t79.5 25t89 8.5q67 0 128 -13t92 -36v-89q-92 64 -229 64q-30 0 -61.5 -5.5t-60.5 -22t-29 -42.5q0 -13 6.5 -24t21.5 -19.5t28.5 -14t39 -11t41 -8.5t45.5 -8q37 -6 60 -10t56.5 -12t53.5 -18.5t40.5 -25.5t30 -35.5t9.5 -46.5zM242 -283l46 171h85l-68 -171h-63z" />
    <glyph glyph-name="dotlessj" unicode="&#x237;" horiz-adv-x="236" 
d="M-80 -94l4 3q28 -7 51 -7q57 0 74.5 23t17.5 73v504h84v-465q0 -98 -15 -131q-36 -76 -150 -76q-28 0 -66 8v68z" />
    <glyph glyph-name="circumflex" unicode="&#x2c6;" horiz-adv-x="324" 
d="M314 637l-49 4l-104 96l-103 -96l-48 -6l128 187h49z" />
    <glyph glyph-name="caron" unicode="&#x2c7;" horiz-adv-x="355" 
d="M292 826l43 -6l-124 -179h-51l-122 179l41 6l108 -101z" />
    <glyph glyph-name="breve" unicode="&#x2d8;" horiz-adv-x="379" 
d="M297 802h43q-4 -76 -45 -125.5t-110 -49.5q-68 0 -108.5 49t-44.5 126h43q11 -41 41 -67t70 -26t70 26t41 67z" />
    <glyph glyph-name="dotaccent" unicode="&#x2d9;" horiz-adv-x="224" 
d="M108 745q20 0 36 -15.5t16 -36.5t-15.5 -36.5t-36.5 -15.5q-22 0 -38 15.5t-16 36.5q0 22 16 37t38 15z" />
    <glyph glyph-name="ring" unicode="&#x2da;" horiz-adv-x="304" 
d="M257 724q0 -42 -28.5 -70.5t-68.5 -28.5t-69 28.5t-29 69.5q0 39 29 68t69 29t68.5 -29t28.5 -67zM210 724q0 19 -15.5 34t-34.5 15q-20 0 -35 -14.5t-15 -34.5q0 -22 15 -37t35 -15q21 0 35.5 15.5t14.5 36.5z" />
    <glyph glyph-name="ogonek" unicode="&#x2db;" horiz-adv-x="268" 
d="M252 -75l25 -32q-74 -52 -121 -52q-40 0 -66.5 23t-26.5 60q0 55 56 103h55q-41 -51 -41 -78q0 -21 17 -35t38 -14q27 0 64 25z" />
    <glyph glyph-name="tilde" unicode="&#x2dc;" horiz-adv-x="375" 
d="M263 705q11 0 24 16t17 32h37q-3 -45 -29.5 -78.5t-65.5 -33.5q-38 0 -80.5 23.5t-63.5 23.5q-13 0 -23.5 -14.5t-13.5 -32.5h-37q1 44 28.5 78t70.5 34q23 0 71 -24t65 -24z" />
    <glyph glyph-name="hungarumlaut" unicode="&#x2dd;" horiz-adv-x="404" 
d="M262 800l-177 -159h-79l165 185zM416 800l-177 -159h-79l165 185z" />
    <glyph glyph-name="Ddotaccent" unicode="&#x1e0a;" horiz-adv-x="868" 
d="M396 0h-308v558h308q67 0 132.5 -16t124.5 -47.5t95 -87.5t36 -128t-36 -128t-95 -87.5t-124.5 -47.5t-132.5 -16zM173 483v-408h214q54 0 103.5 9.5t97.5 31t77 63.5t29 100t-29 100t-77 63.5t-97.5 31t-103.5 9.5h-214zM418 745q20 0 36 -15.5t16 -36.5t-15.5 -36.5
t-36.5 -15.5q-22 0 -38 15.5t-16 36.5q0 22 16 37t38 15z" />
    <glyph glyph-name="Wgrave" unicode="&#x1e80;" horiz-adv-x="1062" 
d="M531 590l208 -432l210 400h93l-303 -587l-208 425l-208 -425l-303 587h93l210 -400zM559 641h-68l-161 154l63 31z" />
    <glyph glyph-name="wgrave" unicode="&#x1e81;" horiz-adv-x="959" 
d="M479 526l184 -364l183 340h93l-276 -523l-184 368l-184 -368l-275 523h92l183 -340zM511 581h-68l-161 154l63 31z" />
    <glyph glyph-name="Wacute" unicode="&#x1e82;" horiz-adv-x="1062" 
d="M531 590l208 -432l210 400h93l-303 -587l-208 425l-208 -425l-303 587h93l210 -400zM659 832l64 -42l-167 -149h-52z" />
    <glyph glyph-name="wacute" unicode="&#x1e83;" horiz-adv-x="959" 
d="M479 526l184 -364l183 340h93l-276 -523l-184 368l-184 -368l-275 523h92l183 -340zM611 772l64 -42l-167 -149h-52z" />
    <glyph glyph-name="Wdieresis" unicode="&#x1e84;" horiz-adv-x="1062" 
d="M531 590l208 -432l210 400h93l-303 -587l-208 425l-208 -425l-303 587h93l210 -400zM620 749q23 0 39.5 -16t16.5 -39q0 -21 -16.5 -37t-38.5 -16t-38 16t-16 37q0 22 16 38.5t37 16.5zM440 749q22 0 38.5 -16t16.5 -39q0 -21 -16 -37t-39 -16q-22 0 -38 16t-16 37
q0 22 16.5 38.5t37.5 16.5z" />
    <glyph glyph-name="wdieresis" unicode="&#x1e85;" horiz-adv-x="959" 
d="M479 526l184 -364l183 340h93l-276 -523l-184 368l-184 -368l-275 523h92l183 -340zM572 689q23 0 39.5 -16t16.5 -39q0 -21 -16.5 -37t-38.5 -16t-38 16t-16 37q0 22 16 38.5t37 16.5zM392 689q22 0 38.5 -16t16.5 -39q0 -21 -16 -37t-39 -16q-22 0 -38 16t-16 37
q0 22 16.5 38.5t37.5 16.5z" />
    <glyph glyph-name="Etilde" unicode="&#x1ebc;" horiz-adv-x="682" 
d="M88 0v558h555v-75h-469v-153h395v-75h-396v-180h470v-75h-555zM449 705q11 0 24 16t17 32h37q-3 -45 -29.5 -78.5t-65.5 -33.5q-38 0 -80.5 23.5t-63.5 23.5q-13 0 -23.5 -14.5t-13.5 -32.5h-37q1 44 28.5 78t70.5 34q23 0 71 -24t65 -24z" />
    <glyph glyph-name="Ygrave" unicode="&#x1ef2;" horiz-adv-x="753" 
d="M132 558l244 -236l245 236h122l-324 -314v-244h-85v244l-324 314h122zM405 641h-68l-161 154l63 31z" />
    <glyph glyph-name="ygrave" unicode="&#x1ef3;" horiz-adv-x="689" 
d="M130 502l213 -207l216 207h120l-293 -283v-219h-83v219l-293 283h120zM375 581h-68l-161 154l63 31z" />
    <glyph glyph-name="endash" unicode="&#x2013;" horiz-adv-x="496" 
d="M481 258v-75h-462v75h462z" />
    <glyph glyph-name="emdash" unicode="&#x2014;" horiz-adv-x="996" 
d="M981 258v-75h-963v75h963z" />
    <glyph glyph-name="quoteleft" unicode="&#x2018;" horiz-adv-x="191" 
d="M191 590l-46 -171h-85l68 171h63z" />
    <glyph glyph-name="quoteright" unicode="&#x2019;" horiz-adv-x="191" 
d="M60 418l46 171h85l-68 -171h-63z" />
    <glyph glyph-name="quotesinglbase" unicode="&#x201a;" horiz-adv-x="146" 
d="M-20 -102l46 171h85l-68 -171h-63z" />
    <glyph glyph-name="quotedblleft" unicode="&#x201c;" horiz-adv-x="370" 
d="M191 589l-46 -171h-85l68 171h63zM330 589l-46 -171h-85l68 171h63z" />
    <glyph glyph-name="quotedblright" unicode="&#x201d;" horiz-adv-x="370" 
d="M60 419l46 171h85l-68 -171h-63zM199 419l46 171h85l-68 -171h-63z" />
    <glyph glyph-name="quotedblbase" unicode="&#x201e;" horiz-adv-x="277" 
d="M-20 -102l46 171h85l-68 -171h-63zM111 -102l46 171h85l-68 -171h-63z" />
    <glyph glyph-name="dagger" unicode="&#x2020;" horiz-adv-x="465" 
d="M420 460l43 -56l-46 -46l-145 24l25 -126l-21 -447h-62l-21 447l25 126l-145 -24l-46 46l43 56l149 -24l-26 181l46 45l58 -44l-25 -182z" />
    <glyph glyph-name="daggerdbl" unicode="&#x2021;" horiz-adv-x="515" 
d="M417 150l46 -46l-43 -56l-149 24l26 -182l-46 -44l-58 43l25 183l-148 -24l-43 56l46 46l145 -24l-25 128l25 128l-145 -24l-46 46l43 56l149 -24l-26 181l46 45l58 -44l-25 -182l148 24l43 -56l-46 -46l-145 24l25 -128l-25 -128z" />
    <glyph glyph-name="bullet" unicode="&#x2022;" horiz-adv-x="403" 
d="M210 476q58 0 100.5 -42t42.5 -101t-42 -101t-101 -42t-101 41.5t-42 100.5q0 60 41.5 102t101.5 42z" />
    <glyph glyph-name="ellipsis" unicode="&#x2026;" horiz-adv-x="750" 
d="M136 93q22 0 38 -15.5t16 -37.5t-16 -38t-38 -16q-23 0 -39 15.5t-16 37.5t16 38t39 16zM386 93q22 0 38 -15.5t16 -37.5t-16 -38t-38 -16q-23 0 -39 15.5t-16 37.5t16 38t39 16zM636 93q22 0 38 -15.5t16 -37.5t-16 -38t-38 -16q-23 0 -39 15.5t-16 37.5t16 38t39 16z
" />
    <glyph glyph-name="perthousand" unicode="&#x2030;" horiz-adv-x="1153" 
d="M602 293q65 0 113.5 -44.5t48.5 -110.5q0 -69 -48.5 -113t-115.5 -44q-71 0 -116 45.5t-45 110.5q0 70 48 113t115 43zM195 571q66 0 114 -44.5t48 -111.5q0 -69 -48.5 -112.5t-115.5 -43.5q-71 0 -116 45.5t-45 109.5q0 70 48 113.5t115 43.5zM723 571l-531 -572h-95
l532 572h94zM194 306q30 0 47.5 33.5t17.5 79.5q0 43 -16.5 73t-47.5 30t-48.5 -31t-17.5 -74q0 -44 17.5 -77t47.5 -34zM601 28q29 0 47 34t18 79q0 42 -17 72.5t-47 30.5q-31 0 -48.5 -31t-17.5 -74t17.5 -76.5t47.5 -34.5zM950 293q65 0 113.5 -44.5t48.5 -110.5
q0 -69 -48.5 -113t-115.5 -44q-71 0 -116 45.5t-45 110.5q0 70 48 113t115 43zM949 28q29 0 47 34t18 79q0 42 -17 72.5t-47 30.5q-31 0 -48.5 -31t-17.5 -74t17.5 -76.5t47.5 -34.5z" />
    <glyph glyph-name="guilsinglleft" unicode="&#x2039;" horiz-adv-x="224" 
d="M192 20l-172 192l171 183l33 -7l-111 -175l108 -179z" />
    <glyph glyph-name="guilsinglright" unicode="&#x203a;" horiz-adv-x="224" 
d="M224 212l-172 -192l-29 14l108 179l-111 175l33 7z" />
    <glyph glyph-name="fraction" unicode="&#x2044;" horiz-adv-x="500" 
d="M407 762l-256 -751h-67l255 751h68z" />
    <glyph glyph-name="Euro" unicode="&#x20ac;" horiz-adv-x="862" 
d="M544 152h-235q43 -45 110 -71.5t145 -26.5q84 0 154 28t111 78v-105q-112 -76 -265 -76q-119 0 -216 47.5t-145 125.5h-174v53h149q-10 31 -12 66h-137v53h141q22 110 133.5 183t260.5 73q151 0 265 -77v-106q-41 50 -111.5 79t-153.5 29q-111 0 -195.5 -51.5
t-106.5 -129.5h282v-53h-288q1 -33 17 -66h271v-53z" />
    <glyph glyph-name="trademark" unicode="&#x2122;" horiz-adv-x="979" 
d="M182 515h-132v54h324v-54h-133v-224h-59v224zM549 467l-65 -176h-61l110 304l143 -219l145 219l109 -304h-61l-66 175l-126 -196z" />
    <glyph glyph-name="onethird" unicode="&#x2153;" horiz-adv-x="1083" 
d="M262 215h-64v336l-67 -67l-41 40l109 109h63v-418zM620 660l-254 -746h-77l253 746h78zM958 103q0 -63 -52.5 -94t-136.5 -31q-113 0 -156 39v75q21 -28 67.5 -43t92.5 -15q117 0 117 84q0 29 -29.5 49.5t-88.5 20.5h-60v56h60q48 0 74.5 19.5t26.5 46.5q0 26 -26 44.5
t-74 18.5q-50 0 -88.5 -19.5t-54.5 -51.5v77q16 23 57.5 36.5t86.5 13.5q71 0 118.5 -32t47.5 -83q0 -76 -86 -97q51 -10 77.5 -35.5t26.5 -78.5z" />
    <glyph glyph-name="twothirds" unicode="&#x2154;" horiz-adv-x="1240" 
d="M437 271v-56h-356v56q16 9 51.5 27t57 30t53 30t51 33.5t39 34.5t28.5 38t9 39q0 43 -30.5 63t-79.5 20q-48 0 -93.5 -18.5t-63.5 -50.5v76q48 49 159 49q81 0 128 -37t47 -95q0 -26 -6.5 -49t-24.5 -44.5t-30 -35t-44 -33.5t-42.5 -26.5t-50 -27t-45.5 -23.5h243z
M777 660l-254 -746h-77l253 746h78zM1115 103q0 -63 -52.5 -94t-136.5 -31q-113 0 -156 39v75q21 -28 67.5 -43t92.5 -15q117 0 117 84q0 29 -29.5 49.5t-88.5 20.5h-60v56h60q48 0 74.5 19.5t26.5 46.5q0 26 -26 44.5t-74 18.5q-50 0 -88.5 -19.5t-54.5 -51.5v77
q16 23 57.5 36.5t86.5 13.5q71 0 118.5 -32t47.5 -83q0 -76 -86 -97q51 -10 77.5 -35.5t26.5 -78.5z" />
    <glyph glyph-name="oneeighth" unicode="&#x215b;" horiz-adv-x="1131" 
d="M272 215h-64v336l-67 -67l-41 40l109 109h63v-418zM620 660l-254 -746h-77l253 746h78zM637 111q0 33 23 62t63 47q-55 36 -55 90q0 50 50.5 86t120.5 36t120 -36t50 -86q0 -54 -55 -90q40 -18 63 -47t23 -62q0 -55 -59 -94t-142 -39t-142.5 39t-59.5 94zM704 111
q0 -32 39 -54.5t96 -22.5t95.5 22.5t38.5 54.5t-38.5 54.5t-95.5 22.5t-96 -22.5t-39 -54.5zM736 310q0 -27 31.5 -46.5t74.5 -19.5q42 0 70.5 19t28.5 47q0 27 -28.5 46.5t-70.5 19.5q-43 0 -74.5 -19.5t-31.5 -46.5z" />
    <glyph glyph-name="threeeighths" unicode="&#x215c;" horiz-adv-x="1264" 
d="M415 318q0 -63 -52.5 -94t-136.5 -31q-113 0 -156 39v75q21 -28 67.5 -43t92.5 -15q117 0 117 84q0 29 -29.5 49.5t-88.5 20.5h-60v56h60q48 0 74.5 19.5t26.5 46.5q0 26 -26 44.5t-74 18.5q-50 0 -88.5 -19.5t-54.5 -51.5v77q16 23 57.5 36.5t86.5 13.5q71 0 118.5 -32
t47.5 -83q0 -76 -86 -97q51 -10 77.5 -35.5t26.5 -78.5zM753 660l-254 -746h-77l253 746h78zM770 111q0 33 23 62t63 47q-55 36 -55 90q0 50 50.5 86t120.5 36t120 -36t50 -86q0 -54 -55 -90q40 -18 63 -47t23 -62q0 -55 -59 -94t-142 -39t-142.5 39t-59.5 94zM837 111
q0 -32 39 -54.5t96 -22.5t95.5 22.5t38.5 54.5t-38.5 54.5t-95.5 22.5t-96 -22.5t-39 -54.5zM869 310q0 -27 31.5 -46.5t74.5 -19.5q42 0 70.5 19t28.5 47q0 27 -28.5 46.5t-70.5 19.5q-43 0 -74.5 -19.5t-31.5 -46.5z" />
    <glyph glyph-name="fiveeighths" unicode="&#x215d;" horiz-adv-x="1254" 
d="M65 302q42 -53 150 -53q52 0 97 23t45 67t-44 66.5t-96 22.5q-98 0 -146 -39l34 244h276v-56h-219l-15 -105q31 12 73 12q78 0 141 -39t63 -105q0 -68 -68.5 -107.5t-147.5 -39.5q-77 0 -143 32v77zM743 660l-254 -746h-77l253 746h78zM760 111q0 33 23 62t63 47
q-55 36 -55 90q0 50 50.5 86t120.5 36t120 -36t50 -86q0 -54 -55 -90q40 -18 63 -47t23 -62q0 -55 -59 -94t-142 -39t-142.5 39t-59.5 94zM827 111q0 -32 39 -54.5t96 -22.5t95.5 22.5t38.5 54.5t-38.5 54.5t-95.5 22.5t-96 -22.5t-39 -54.5zM859 310q0 -27 31.5 -46.5
t74.5 -19.5q42 0 70.5 19t28.5 47q0 27 -28.5 46.5t-70.5 19.5q-43 0 -74.5 -19.5t-31.5 -46.5z" />
    <glyph glyph-name="seveneighths" unicode="&#x215e;" horiz-adv-x="1202" 
d="M167 179l-54 33l220 365h-259v56h368zM691 660l-254 -746h-77l253 746h78zM708 111q0 33 23 62t63 47q-55 36 -55 90q0 50 50.5 86t120.5 36t120 -36t50 -86q0 -54 -55 -90q40 -18 63 -47t23 -62q0 -55 -59 -94t-142 -39t-142.5 39t-59.5 94zM775 111q0 -32 39 -54.5
t96 -22.5t95.5 22.5t38.5 54.5t-38.5 54.5t-95.5 22.5t-96 -22.5t-39 -54.5zM807 310q0 -27 31.5 -46.5t74.5 -19.5q42 0 70.5 19t28.5 47q0 27 -28.5 46.5t-70.5 19.5q-43 0 -74.5 -19.5t-31.5 -46.5z" />
    <glyph glyph-name="minus" unicode="&#x2212;" horiz-adv-x="294" 
d="M276 258v-75h-213v75h213z" />
    <glyph glyph-name="approxequal" unicode="&#x2248;" horiz-adv-x="584" 
d="M498 410l49 -26q-12 -55 -46 -91t-86 -36q-46 0 -128.5 37t-115.5 37q-54 0 -81 -80l-48 24q13 58 47.5 94.5t88.5 36.5q30 0 119.5 -37.5t123.5 -37.5q55 0 77 79zM490 247l49 -26q-12 -55 -46 -91t-86 -36q-46 0 -128.5 37t-115.5 37q-54 0 -81 -80l-48 24
q13 58 47.5 94.5t88.5 36.5q30 0 119.5 -37.5t123.5 -37.5q55 0 77 79z" />
    <glyph glyph-name="notequal" unicode="&#x2260;" horiz-adv-x="623" 
d="M471 660l-80 -235h173v-70h-197l-43 -125h240v-70h-264l-83 -246h-77l83 246h-174v70h198l42 125h-240v70h264l80 235h78z" />
    <glyph glyph-name="lessequal" unicode="&#x2264;" horiz-adv-x="569" 
d="M543 89l-516 227v56l516 227v-73l-416 -182l416 -181v-74zM546 2h-515v70h515v-70z" />
    <glyph glyph-name="greaterequal" unicode="&#x2265;" horiz-adv-x="646" 
d="M588 316l-516 -227v74l416 181l-416 182v73l516 -227v-56zM583 2h-514v70h514v-70z" />
    <glyph glyph-name="undercommaaccent" horiz-adv-x="143" 
d="M-21 -283l46 171h85l-68 -171h-63z" />
    <glyph glyph-name="1.orn" horiz-adv-x="1698" 
d="M996 353h51l88 93l319 -118l-62 -26l-87 51q-26 -3 -52 -9t-68 -19.5t-80 -37.5t-76.5 -58t-68.5 -87t-46 -118q-13 58 -38.5 107t-55.5 81.5t-67 58t-69.5 40t-67.5 24.5t-55.5 13.5t-38.5 4.5l-97 -51l-62 26l319 113l88 -88h72q18 36 18 55q0 13 -8 17q6 3 16 3
q19 0 32 -6t22 -15l-55 70q16 5 37 5q92 0 92 -129zM1660 446l-72 -72l-453 72h525zM229 369l-72 72h525zM1555 371l-67 -47l-353 122zM332 322l-67 47l417 72zM914 261q-3 4 -8.5 9.5t-30 21t-56.5 27.5t-90 22.5t-127 11.5q67 -1 123.5 -13t89.5 -27.5t57 -31t33 -25.5
l9 -11q3 4 10 11t33 25t58.5 32t90 26t123.5 14q-68 0 -125.5 -9.5t-91 -23t-57 -27t-32.5 -23.5zM869 431q-39 0 -48 -26q2 28 12.5 45.5t18.5 21.5t12 4l50 -61q-16 16 -45 16zM919 441l10 15l-41 5z" />
    <glyph glyph-name="Dacute" horiz-adv-x="868" 
d="M396 0h-308v558h308q67 0 132.5 -16t124.5 -47.5t95 -87.5t36 -128t-36 -128t-95 -87.5t-124.5 -47.5t-132.5 -16zM173 483v-408h214q54 0 103.5 9.5t97.5 31t77 63.5t29 100t-29 100t-77 63.5t-97.5 31t-103.5 9.5h-214zM545 832l64 -42l-167 -149h-52z" />
    <glyph glyph-name="Dbreve" horiz-adv-x="868" 
d="M396 0h-308v558h308q67 0 132.5 -16t124.5 -47.5t95 -87.5t36 -128t-36 -128t-95 -87.5t-124.5 -47.5t-132.5 -16zM173 483v-408h214q54 0 103.5 9.5t97.5 31t77 63.5t29 100t-29 100t-77 63.5t-97.5 31t-103.5 9.5h-214zM527 802h43q-4 -76 -45 -125.5t-110 -49.5
q-68 0 -108.5 49t-44.5 126h43q11 -41 41 -67t70 -26t70 26t41 67z" />
    <glyph glyph-name="Dcircumflex" horiz-adv-x="868" 
d="M396 0h-308v558h308q67 0 132.5 -16t124.5 -47.5t95 -87.5t36 -128t-36 -128t-95 -87.5t-124.5 -47.5t-132.5 -16zM173 483v-408h214q54 0 103.5 9.5t97.5 31t77 63.5t29 100t-29 100t-77 63.5t-97.5 31t-103.5 9.5h-214zM570 637l-49 4l-104 96l-103 -96l-48 -6l128 187
h49z" />
    <glyph glyph-name="Ddieresis" horiz-adv-x="868" 
d="M396 0h-308v558h308q67 0 132.5 -16t124.5 -47.5t95 -87.5t36 -128t-36 -128t-95 -87.5t-124.5 -47.5t-132.5 -16zM173 483v-408h214q54 0 103.5 9.5t97.5 31t77 63.5t29 100t-29 100t-77 63.5t-97.5 31t-103.5 9.5h-214zM509 749q23 0 39.5 -16t16.5 -39
q0 -21 -16.5 -37t-38.5 -16t-38 16t-16 37q0 22 16 38.5t37 16.5zM329 749q22 0 38.5 -16t16.5 -39q0 -21 -16 -37t-39 -16q-22 0 -38 16t-16 37q0 22 16.5 38.5t37.5 16.5z" />
    <glyph glyph-name="Dhungarumlaut" horiz-adv-x="868" 
d="M396 0h-308v558h308q67 0 132.5 -16t124.5 -47.5t95 -87.5t36 -128t-36 -128t-95 -87.5t-124.5 -47.5t-132.5 -16zM173 483v-408h214q54 0 103.5 9.5t97.5 31t77 63.5t29 100t-29 100t-77 63.5t-97.5 31t-103.5 9.5h-214zM556 800l-177 -159h-79l165 185zM710 800
l-177 -159h-79l165 185z" />
    <glyph glyph-name="Dgrave" horiz-adv-x="868" 
d="M396 0h-308v558h308q67 0 132.5 -16t124.5 -47.5t95 -87.5t36 -128t-36 -128t-95 -87.5t-124.5 -47.5t-132.5 -16zM173 483v-408h214q54 0 103.5 9.5t97.5 31t77 63.5t29 100t-29 100t-77 63.5t-97.5 31t-103.5 9.5h-214zM449 641h-68l-161 154l63 31z" />
    <glyph glyph-name="Dring" horiz-adv-x="868" 
d="M396 0h-308v558h308q67 0 132.5 -16t124.5 -47.5t95 -87.5t36 -128t-36 -128t-95 -87.5t-124.5 -47.5t-132.5 -16zM173 483v-408h214q54 0 103.5 9.5t97.5 31t77 63.5t29 100t-29 100t-77 63.5t-97.5 31t-103.5 9.5h-214zM514 724q0 -42 -28.5 -70.5t-68.5 -28.5
t-69 28.5t-29 69.5q0 39 29 68t69 29q39 0 68 -29t29 -67zM467 724q0 19 -15.5 34t-34.5 15q-20 0 -35 -14.5t-15 -34.5q0 -22 15 -37t35 -15q21 0 35.5 15.5t14.5 36.5z" />
    <glyph glyph-name="Dtilde" horiz-adv-x="868" 
d="M396 0h-308v558h308q67 0 132.5 -16t124.5 -47.5t95 -87.5t36 -128t-36 -128t-95 -87.5t-124.5 -47.5t-132.5 -16zM173 483v-408h214q54 0 103.5 9.5t97.5 31t77 63.5t29 100t-29 100t-77 63.5t-97.5 31t-103.5 9.5h-214zM495 705q11 0 24 16t17 32h37
q-3 -45 -29.5 -78.5t-65.5 -33.5q-38 0 -80.5 23.5t-63.5 23.5q-13 0 -23.5 -14.5t-13.5 -32.5h-37q1 44 28.5 78t70.5 34q23 0 71 -24t65 -24z" />
    <glyph glyph-name="Dcroat" horiz-adv-x="868" 
d="M-37 237v54h125v267h308q67 0 132.5 -16t124.5 -47.5t95 -87.5t36 -128t-36 -128t-95 -87.5t-124.5 -47.5t-132.5 -16h-308v237h-125zM173 483v-192h96v-54h-96v-162h214q54 0 103.5 9.5t97.5 31t77 63.5t29 100t-29 100t-77 63.5t-97.5 31t-103.5 9.5h-214z" />
    <glyph glyph-name="Ehungarumlaut" horiz-adv-x="682" 
d="M88 0v558h555v-75h-469v-153h395v-75h-396v-180h470v-75h-555zM510 800l-177 -159h-79l165 185zM664 800l-177 -159h-79l165 185z" />
    <glyph glyph-name="Ering" horiz-adv-x="682" 
d="M88 0v558h555v-75h-469v-153h395v-75h-396v-180h470v-75h-555zM468 724q0 -42 -28.5 -70.5t-68.5 -28.5t-69 28.5t-29 69.5q0 39 29 68t69 29q39 0 68 -29t29 -67zM421 724q0 19 -15.5 34t-34.5 15q-20 0 -35 -14.5t-15 -34.5q0 -22 15 -37t35 -15q21 0 35.5 15.5
t14.5 36.5z" />
    <glyph glyph-name="commaaccent" horiz-adv-x="143" 
d="M-22 -283l46 171h85l-68 -171h-63z" />
    <glyph glyph-name="Odotaccent" horiz-adv-x="910" 
d="M50 279q0 125 116.5 213t281.5 88t281.5 -88t116.5 -213q0 -124 -116.5 -212t-281.5 -88t-281.5 88t-116.5 212zM140 279q0 -94 90 -159.5t218 -65.5t218 65.5t90 159.5t-90 160t-218 66t-218 -66t-90 -160zM448 745q20 0 36 -15.5t16 -36.5t-15.5 -36.5t-36.5 -15.5
q-22 0 -38 15.5t-16 36.5q0 22 16 37t38 15z" />
    <glyph glyph-name="Oring" horiz-adv-x="910" 
d="M50 279q0 125 116.5 213t281.5 88t281.5 -88t116.5 -213q0 -124 -116.5 -212t-281.5 -88t-281.5 88t-116.5 212zM140 279q0 -94 90 -159.5t218 -65.5t218 65.5t90 159.5t-90 160t-218 66t-218 -66t-90 -160zM544 724q0 -42 -28.5 -70.5t-68.5 -28.5t-69 28.5t-29 69.5
q0 39 29 68t69 29q39 0 68 -29t29 -67zM497 724q0 19 -15.5 34t-34.5 15q-20 0 -35 -14.5t-15 -34.5q0 -22 15 -37t35 -15q21 0 35.5 15.5t14.5 36.5z" />
    <glyph glyph-name="threeoldstyle" horiz-adv-x="584" 
d="M529 81q0 -85 -69.5 -126t-182.5 -41q-60 0 -119.5 13t-87.5 39v100q27 -37 89 -57t124 -20q156 0 156 111q0 39 -39 66.5t-118 27.5h-80v75h80q64 0 99 26t35 61t-34 59.5t-99 24.5q-67 0 -118.5 -25.5t-72.5 -68.5v103q21 31 77 48.5t115 17.5q95 0 158.5 -42.5
t63.5 -110.5q0 -101 -115 -129q67 -14 102.5 -48t35.5 -104z" />
    <glyph glyph-name="fouroldstyle" horiz-adv-x="607" 
d="M441 33v-125h-85v125h-336l421 481v-406h96v-75h-96zM356 108v197l-170 -197h170z" />
    <glyph glyph-name="fiveoldstyle" horiz-adv-x="589" 
d="M55 59q55 -70 200 -70q42 0 83 11t73.5 39.5t32.5 68.5t-31 68.5t-71.5 39.5t-83.5 11q-60 0 -113.5 -15t-81.5 -37l46 326h367v-75h-292l-20 -140q45 16 98 16q66 0 126.5 -21t103 -66.5t42.5 -104.5q0 -62 -47.5 -108.5t-111.5 -67t-129 -20.5q-106 0 -191 43v102z" />
    <glyph glyph-name="sixoldstyle" horiz-adv-x="649" 
d="M55 164q0 75 96 175l241 250l60 -59l-189 -196q36 17 82 17q59 0 117.5 -23t100 -67.5t41.5 -98.5q0 -50 -26 -89t-68.5 -60t-87.5 -31.5t-90 -10.5q-44 0 -89.5 10t-89 30.5t-71 60.5t-27.5 92zM514 160q0 59 -56.5 87.5t-127.5 28.5t-128 -29.5t-57 -84.5q0 -42 32 -70
t71.5 -37.5t81.5 -9.5q69 0 126.5 28.5t57.5 86.5z" />
    <glyph glyph-name="sevenoldstyle" horiz-adv-x="480" 
d="M144 -103l-73 44l294 487h-345v75h490z" />
    <glyph glyph-name="eightoldstyle" horiz-adv-x="658" 
d="M60 92q0 44 31 83t84 63q-73 47 -73 119q0 67 66.5 115t160.5 48t160.5 -48t66.5 -115q0 -72 -73 -119q53 -25 84 -63.5t31 -82.5q0 -73 -79 -125t-190 -52t-190 52t-79 125zM150 92q0 -43 51.5 -72.5t127.5 -29.5t127.5 29.5t51.5 72.5t-51.5 73t-127.5 30t-127.5 -30
t-51.5 -73zM192 357q0 -36 41.5 -61.5t99.5 -25.5q57 0 95 25t38 62t-38 62.5t-95 25.5t-99 -26t-42 -62z" />
    <glyph glyph-name="nineoldstyle" horiz-adv-x="649" 
d="M594 329q0 -75 -96 -175l-241 -250l-60 59l189 196q-36 -17 -82 -17q-59 0 -117.5 23t-100 67.5t-41.5 98.5q0 50 26 89t68.5 60t87.5 31.5t90 10.5q44 0 89.5 -10t89 -30.5t71 -60.5t27.5 -92zM135 333q0 -59 56.5 -87.5t127.5 -28.5t128 29.5t57 84.5q0 42 -32 70
t-71.5 37.5t-81.5 9.5q-69 0 -126.5 -28.5t-57.5 -86.5z" />
    <glyph glyph-name="orn.001" horiz-adv-x="1800" 
d="M996 353h51l88 93l319 -118l-62 -26l-87 51q-26 -3 -52 -9t-68 -19.5t-80 -37.5t-76.5 -58t-68.5 -87t-46 -118q-13 58 -38.5 107t-55.5 81.5t-67 58t-69.5 40t-67.5 24.5t-55.5 13.5t-38.5 4.5l-97 -51l-62 26l319 113l88 -88h72q18 36 18 55q0 13 -8 17q6 3 16 3
q19 0 32 -6t22 -15l-55 70q16 5 37 5q92 0 92 -129zM1660 446l-72 -72l-453 72h525zM229 369l-72 72h525zM1555 371l-67 -47l-353 122zM332 322l-67 47l417 72zM914 261q-3 4 -8.5 9.5t-30 21t-56.5 27.5t-90 22.5t-127 11.5q67 -1 123.5 -13t89.5 -27.5t57 -31t33 -25.5
l9 -11q3 4 10 11t33 25t58.5 32t90 26t123.5 14q-68 0 -125.5 -9.5t-91 -23t-57 -27t-32.5 -23.5zM869 431q-39 0 -48 -26q2 28 12.5 45.5t18.5 21.5t12 4l50 -61q-16 16 -45 16zM919 441l10 15l-41 5z" />
    <glyph glyph-name="tester" horiz-adv-x="0" 
d="M227 593l225 126l187 -72l83 -180l1 -1l125 -178l-134 -216l40 196l-111 146l-211 25l-249 -130l208 221l209 -12l-29 73l-117 47zM722 468v-1l1 -1z" />
    <glyph glyph-name="zerooldstyle" horiz-adv-x="570" 
d="M515 246q0 -128 -68.5 -201.5t-161.5 -73.5t-161.5 73.5t-68.5 201.5q0 127 68 197t162 70t162 -70t68 -197zM425 243q0 94 -42 144.5t-100 50.5q-55 0 -96.5 -51.5t-41.5 -138.5q0 -94 42.5 -148t99.5 -54q56 0 97 52t41 145z" />
    <glyph glyph-name="twooldstyle" horiz-adv-x="582" 
d="M512 75v-75h-432v75l223 129q45 26 84.5 66.5t39.5 69.5q0 50 -37 73t-95 23q-48 0 -96 -15t-74 -39v91q70 40 169 40q93 0 158 -41.5t65 -128.5q0 -52 -41 -102.5t-103 -85.5l-142 -80h281z" />
    <glyph glyph-name="oneoldstyle" horiz-adv-x="349" 
d="M269 0h-85v392l-89 -89l-55 53l145 146h84v-502z" />
    <glyph glyph-name="A.alt" horiz-adv-x="776" 
d="M665 0l-111 172h-332l-111 -172h-101l327 509l-34 49h103l360 -558h-101zM388 430l-118 -183h236z" />
    <glyph glyph-name="OO" horiz-adv-x="1397" 
d="M60 279q0 125 116.5 213t281.5 88q138 0 245 -64q109 64 246 64q165 0 281.5 -88t116.5 -213q0 -124 -116.5 -212t-281.5 -88q-137 0 -246 64q-107 -64 -245 -64q-165 0 -281.5 88t-116.5 212zM551 279q0 104 84 185q-79 41 -177 41q-128 0 -218 -66t-90 -160t90 -159.5
t218 -65.5q97 0 177 40q-84 81 -84 185zM856 279q0 -103 -84 -185q80 -40 177 -40q128 0 218 65.5t90 159.5t-90 160t-218 66q-98 0 -177 -41q84 -82 84 -185zM641 279q0 -77 62 -136q63 60 63 136q0 75 -63 136q-62 -60 -62 -136z" />
    <glyph glyph-name="orn.002" horiz-adv-x="1282" 
d="M1184 382h-462l-14 -8h391l-94 -75h-447l-15 -8h376l-93 -78h-212l-75 -15l79 -60l130 11l-155 -126l-223 93l-215 -42l32 -50l-32 -54l11 50l-33 51l-47 -4l-64 -33l57 51l50 4l-10 21l-29 14l-57 -10l57 29l47 -19l11 -28l105 91l-51 123l62 75l-65 7q11 3 30.5 14.5
t33.5 11.5q15 0 39 -12l-73 92q26 7 50 7q46 0 74 -23q37 -30 61 -154l144 125h716zM221 444q-18 0 -34 -9t-20 -25q6 86 54 86l64 -76q-24 24 -64 24zM296 453l17 18l-54 7z" />
    <glyph glyph-name="Imacron" horiz-adv-x="285" 
d="M185 0h-85v558h85v-558zM-12 641v54h306v-54h-306z" />
    <glyph glyph-name="ibreve" horiz-adv-x="282" 
d="M182 0h-82v502h82v-502zM253 742h43q-4 -76 -45 -125.5t-110 -49.5q-68 0 -108.5 49t-44.5 126h43q11 -41 41 -67t70 -26t70 26t41 67z" />
    </font>
</defs>
</svg>
